Zootopia (2016) Full 1080p Latino

1.028 vistas
1 estrella2 estrellas3 estrellas4 estrellas5 estrellas (3 votos, promedio: 5,00 de 5)
Cargando…

Información de Zootopia (2016) Full 1080p Latino

Datos de la película

  • Calidad: Full 1080p
  • Audio: Español Latino AC3 5.1 BLURAY - Ingles DTS 5.1 BLURAY
  • Subtitulos: Español Latino PGS - Ingles PGS
  • Resolución: 1920X1080p
  • Formato: MKV
  • Codec: H.264
  • Encoder: Dracarys
  • Mediainfo: Clic para Mostrar Datos Ver
  • Format                                   : Matroska
    Format version                           : Version 4 / Version 2
    File size                                : 4.48 GiB
    Duration                                 : 1 h 48 min
    Overall bit rate                         : 5 898 kb/s
    Movie name                               : CinemaniaHDD.com
    Encoded date                             : UTC 2017-12-23 01:18:06 / UTC 2017-12-21T15:34:04Z
    Writing application                      : mkvmerge v15.0.0 ('Duel with the Devil') 64-bit
    Writing library                          : libebml v1.3.5 + libmatroska v1.4.5 / Lavf57.7.2

    Video
    ID                                       : 1
    Format                                   : AVC
    Format/Info                              : Advanced Video Codec
    Format profile                           : [email protected]
    Format settings                          : CABAC / 4 Ref Frames
    Format settings, CABAC                   : Yes
    Format settings, RefFrames               : 4 frames
    Codec ID                                 : V_MPEG4/ISO/AVC
    Duration                                 : 1 h 48 min
    Bit rate                                 : 3 632 kb/s
    Width                                    : 1 920 pixels
    Height                                   : 1 080 pixels
    Display aspect ratio                     : 16:9
    Frame rate mode                          : Constant
    Frame rate                               : 23.976 (24000/1001) FPS
    Color space                              : YUV
    Chroma subsampling                       : 4:2:0
    Bit depth                                : 8 bits
    Scan type                                : Progressive
    Bits/(Pixel*Frame)                       : 0.073
    Stream size                              : 2.76 GiB (62%)
    Title                                    : Zootopia (2016) Full 1080p Latino
    Writing library                          : x264 core 148 r2708 86b7198
    Encoding settings                        : cabac=1 / ref=4 / deblock=1:0:0 / analyse=0x3:0x133 / me=esa / subme=10 / psy=1 / psy_rd=1.00:0.00 / mixed_ref=1 / me_range=24 / chroma_me=1 / trellis=2 / 8x8dct=1 / cqm=0 / deadzone=21,11 / fast_pskip=1 / chroma_qp_offset=-2 / threads=34 / lookahead_threads=5 / sliced_threads=0 / nr=0 / decimate=1 / interlaced=0 / bluray_compat=0 / constrained_intra=0 / bframes=8 / b_pyramid=2 / b_adapt=2 / b_bias=0 / direct=3 / weightb=1 / open_gop=0 / weightp=2 / keyint=240 / keyint_min=24 / scenecut=40 / intra_refresh=0 / rc_lookahead=60 / rc=crf / mbtree=1 / crf=20.0 / qcomp=0.60 / qpmin=0 / qpmax=69 / qpstep=4 / vbv_maxrate=62500 / vbv_bufsize=78125 / crf_max=0.0 / nal_hrd=none / filler=0 / ip_ratio=1.40 / aq=1:1.00
    Language                                 : English
    Default                                  : Yes
    Forced                                   : No
    Color range                              : Limited
    Color primaries                          : BT.709
    Transfer characteristics                 : BT.709
    Matrix coefficients                      : BT.709
    Statistics Tags Issue                    : mkvmerge v15.0.0 ('Duel with the Devil') 64-bit 2017-12-23 01:18:06 / mkvmerge v15.0.0 ('Duel with the Devil') 64-bit 2017-12-23 01:18:06 / UTC 2017-12-21T15:34:04Z
    FromStats_BitRate                        : 3717060
    FromStats_Duration                       : 01:48:44.602000000
    FromStats_FrameCount                     : 156434
    FromStats_StreamSize                     : 3031542750

    Audio #1
    ID                                       : 2
    Format                                   : AC-3
    Format/Info                              : Audio Coding 3
    Format settings, Endianness              : Big
    Codec ID                                 : A_AC3
    Duration                                 : 1 h 48 min
    Bit rate mode                            : Constant
    Bit rate                                 : 640 kb/s
    Channel(s)                               : 6 channels
    Channel positions                        : Front: L C R, Side: L R, LFE
    Sampling rate                            : 48.0 kHz
    Frame rate                               : 31.250 FPS (1536 SPF)
    Bit depth                                : 16 bits
    Compression mode                         : Lossy
    Stream size                              : 498 MiB (11%)
    Language                                 : Spanish
    Service kind                             : Complete Main
    Default                                  : Yes
    Forced                                   : No
    Statistics Tags Issue                    : mkvmerge v15.0.0 ('Duel with the Devil') 64-bit 2017-12-23 01:18:06 / mkvmerge v15.0.0 ('Duel with the Devil') 64-bit 2017-12-23 01:18:06 / UTC 2017-12-21T15:34:04Z
    FromStats_BitRate                        : 640000
    FromStats_Duration                       : 01:48:44.672000000
    FromStats_FrameCount                     : 203896
    FromStats_StreamSize                     : 521973760

    Audio #2
    ID                                       : 3
    Format                                   : DTS
    Format/Info                              : Digital Theater Systems
    Mode                                     : 16
    Format settings, Endianness              : Big
    Codec ID                                 : A_DTS
    Duration                                 : 1 h 48 min
    Bit rate mode                            : Constant
    Bit rate                                 : 1 509 kb/s
    Channel(s)                               : 6 channels
    Channel positions                        : Front: L C R, Side: L R, LFE
    Sampling rate                            : 48.0 kHz
    Frame rate                               : 93.750 FPS (512 SPF)
    Bit depth                                : 24 bits
    Compression mode                         : Lossy
    Stream size                              : 1.15 GiB (26%)
    Language                                 : English
    Default                                  : No
    Forced                                   : No
    Statistics Tags Issue                    : mkvmerge v15.0.0 ('Duel with the Devil') 64-bit 2017-12-23 01:18:06 / mkvmerge v15.0.0 ('Duel with the Devil') 64-bit 2017-12-23 01:18:06 / UTC 2017-12-21T15:34:04Z
    FromStats_BitRate                        : 1509000
    FromStats_Duration                       : 01:48:41.568000000
    FromStats_FrameCount                     : 611397
    FromStats_StreamSize                     : 1230130764

    Text #1
    ID                                       : 4
    Format                                   : PGS
    Muxing mode                              : zlib
    Codec ID                                 : S_HDMV/PGS
    Codec ID/Info                            : Picture based subtitle format used on BDs/HD-DVDs
    Language                                 : English
    Default                                  : No
    Forced                                   : No
    Statistics Tags Issue                    : mkvmerge v15.0.0 ('Duel with the Devil') 64-bit 2017-12-23 01:18:06 / mkvmerge v15.0.0 ('Duel with the Devil') 64-bit 2017-12-23 01:18:06 / UTC 2017-12-21T15:34:04Z
    FromStats_BitRate                        : 53649
    FromStats_Duration                       : 01:45:45.514000000
    FromStats_FrameCount                     : 4589
    FromStats_StreamSize                     : 42553852

    Text #2
    ID                                       : 5
    Format                                   : PGS
    Muxing mode                              : zlib
    Codec ID                                 : S_HDMV/PGS
    Codec ID/Info                            : Picture based subtitle format used on BDs/HD-DVDs
    Language                                 : Spanish
    Default                                  : No
    Forced                                   : No
    Statistics Tags Issue                    : mkvmerge v15.0.0 ('Duel with the Devil') 64-bit 2017-12-23 01:18:06 / mkvmerge v15.0.0 ('Duel with the Devil') 64-bit 2017-12-23 01:18:06 / UTC 2017-12-21T15:34:04Z
    FromStats_BitRate                        : 46790
    FromStats_Duration                       : 01:38:57.899000000
    FromStats_FrameCount                     : 3452
    FromStats_StreamSize                     : 34729834

    Menu
    00:00:00.000                             : :Chapter 1
    00:00:59.560                             : :Chapter 2
    00:05:50.141                             : :Chapter 3
    00:10:05.647                             : :Chapter 4
    00:14:31.621                             : :Chapter 5
    00:18:24.103                             : :Chapter 6
    00:26:03.479                             : :Chapter 7
    00:30:57.606                             : :Chapter 8
    00:37:07.225                             : :Chapter 9
    00:40:43.566                             : :Chapter 10
    00:44:31.878                             : :Chapter 11
    00:51:40.598                             : :Chapter 12
    00:55:40.546                             : :Chapter 13
    01:00:48.436                             : :Chapter 14
    01:03:38.023                             : :Chapter 15
    01:09:19.989                             : :Chapter 16
    01:13:39.332                             : :Chapter 17
    01:17:07.540                             : :Chapter 18
    01:21:52.533                             : :Chapter 19
    01:28:19.336                             : :Chapter 20
    01:32:43.641                             : :Chapter 21
    01:36:12.350                             : :Chapter 22

  • Peso: 4.48 GiB

Sinopsis

La moderna metrópoli mamífera de Zootrópolis es una ciudad absolutamente única. Está compuesta de barrios con diferentes hábitats como la lujosa Sahara Square y la gélida Tundratown. Es un crisol donde los animales de cada entorno conviven, un lugar donde no importa lo que seas. De hecho puedes ser cualquier cosa, desde un elefante enorme hasta la musaraña más diminuta. Pero cuando llega la optimista agente Judy Hopps, descubre que ser la primera conejita de un cuerpo policial compuesto de animales duros y enormes no es nada fácil. Pero está decidida a demostrar su valía y se mete de cabeza en un caso, a pesar de que eso significa trabajar con Nick Wilde, un zorro parlanchín y estafador, para resolver el misterio.

Ficha técnica

Video trailer de la película

Enlaces de descarga

Rip de Bluray

Descargar Zootopia (2016) Full 1080p Latino




Aportes de DPeliculasHDmega la pass es:dpeliculashdmega.org Aportes de CinemaniaHD la pass es:eatsouthward.com

Películas relacionadas

  • Dude (2018) NF 1080p Latino

    2018
    Dude (2018) NF 1080p Latino

    0.0 1h 30m 2018

    Cuatro mejores amigas se tienen que enfrentar a su nueva vida. Las dos últimas semanas de instituto...

    Director: Olivia Milch

    Género: Comedia

    Actores: Sydney Lucas

  • Gun shy (2017) 1080p Latino

    2017
    Gun shy (2017) 1080p Latino

    0.0 1h 31m 2017

    Basada en la novela homónima de Mark Haskell Smith. Turk Henry es una antigua estrella de rock con sobrepeso...

    Director: Simon West

    Género: Acción

    Actores: Sebastián Apiolaza

  • Maze Runner prueba de fuego (2015) Full 1080p Latino

    2015
    Maze Runner prueba de fuego (2015) Full 1080p Latino

    5.0 2 h 11 min 2015

    En este nuevo capítulo de la trepidante saga "El Corredor del Laberinto", Thomas (Dylan O'Brien) y el...

    Director: Wes Ball

    Género: Acción

    Actores: Thomas Brodie-Sangster

  • Maze Runner correr o morir (2014) Full 1080p Latino

    2014
    Maze Runner correr o morir (2014) Full 1080p Latino

    5.0 1 h 53 min 2014

    Thomas abre los ojos y se da cuenta que está en un ascensor. Lo extraño es que no recuerda nada, ni...

    Director: Wes Ball

    Género: Acción

    Actores: Will Poulter

  • Se dice de mí (2010) Full 1080p Latino

    2010
    Se dice de mí (2010) Full 1080p Latino

    5.0 1 h 32 min 2010

    El guión, obra del dramaturgo Bert V. Royal, es una versión moderna y en clave estudiantil de “La...

    Director: Will Sandoval

    Género: Comedia

    Actores: Zack Kennedy

Comentarios 3
  • Santiago - 26 diciembre, 2017

    Amigo cómo estas? te molesto de nuevo con una pregunta, si reproduzco una película en el TV usando una memoria USB, es posible hacerla sonar en un teatro en casa? Muchas gracias.

    • Dpelis2 - 26 diciembre, 2017

      Saludos amigo! si posible, solo si tu TV esta conectada un ti sistema de sonido, A travez de los tipicos cables de colores (Rojo y blanco) o de una salida de audio optico.
      Saludos, cualquier consulta no olvides preguntar

  • Tio Higuera - 24 diciembre, 2017

    Buena pelicula. Gracias.

-->