Yo, robot (2004) Full 1080p Latino

1.125 vistas
1 estrella2 estrellas3 estrellas4 estrellas5 estrellas (1 votos, promedio: 5,00 de 5)
Cargando…

Información de Yo, robot (2004) Full 1080p Latino

Datos de la película

  • Calidad: Full 1080p
  • Audio: Español Latino DTS 5.1 BLURAY - Ingles DTS 5.1 BLURAY
  • Subtitulos: Español Latino PGS - Ingles PGS
  • Resolución: 1920X1080
  • Formato: MKV
  • Codec: H.264
  • Encoder: Dracarys
  • Mediainfo: Clic para Mostrar Datos Ver
  • Format                                   : Matroska
    Format version                           : Version 4 / Version 2
    File size                                : 7.01 GiB
    Duration                                 : 1 h 54 min
    Overall bit rate                         : 8 751 kb/s
    Movie name                               : CinemaniaHDD.com
    Encoded date                             : UTC 2017-12-08 01:21:13 / UTC 2017-12-04T20:06:24Z
    Writing application                      : mkvmerge v15.0.0 ('Duel with the Devil') 64-bit
    Writing library                          : libebml v1.3.5 + libmatroska v1.4.5 / Lavf57.7.2

    Video
    ID                                       : 1
    Format                                   : AVC
    Format/Info                              : Advanced Video Codec
    Format profile                           : [email protected]
    Format settings                          : CABAC / 4 Ref Frames
    Format settings, CABAC                   : Yes
    Format settings, RefFrames               : 4 frames
    Codec ID                                 : V_MPEG4/ISO/AVC
    Duration                                 : 1 h 54 min
    Bit rate                                 : 6 300 kb/s
    Width                                    : 1 920 pixels
    Height                                   : 1 080 pixels
    Display aspect ratio                     : 16:9
    Frame rate mode                          : Constant
    Frame rate                               : 23.976 (24000/1001) FPS
    Color space                              : YUV
    Chroma subsampling                       : 4:2:0
    Bit depth                                : 8 bits
    Scan type                                : Progressive
    Bits/(Pixel*Frame)                       : 0.127
    Stream size                              : 5.05 GiB (72%)
    Title                                    : Yo, robot (2004) Full 1080p Latino
    Writing library                          : x264 core 148 r2708 86b7198
    Encoding settings                        : cabac=1 / ref=4 / deblock=1:0:0 / analyse=0x3:0x133 / me=esa / subme=10 / psy=1 / psy_rd=1.00:0.00 / mixed_ref=1 / me_range=24 / chroma_me=1 / trellis=2 / 8x8dct=1 / cqm=0 / deadzone=21,11 / fast_pskip=1 / chroma_qp_offset=-2 / threads=34 / lookahead_threads=5 / sliced_threads=0 / nr=0 / decimate=1 / interlaced=0 / bluray_compat=0 / constrained_intra=0 / bframes=8 / b_pyramid=2 / b_adapt=2 / b_bias=0 / direct=3 / weightb=1 / open_gop=0 / weightp=2 / keyint=240 / keyint_min=24 / scenecut=40 / intra_refresh=0 / rc_lookahead=60 / rc=crf / mbtree=1 / crf=20.0 / qcomp=0.60 / qpmin=0 / qpmax=69 / qpstep=4 / vbv_maxrate=62500 / vbv_bufsize=78125 / crf_max=0.0 / nal_hrd=none / filler=0 / ip_ratio=1.40 / aq=1:1.00
    Language                                 : English
    Default                                  : Yes
    Forced                                   : No
    Color range                              : Limited
    Color primaries                          : BT.709
    Transfer characteristics                 : BT.709
    Matrix coefficients                      : BT.709
    Statistics Tags Issue                    : mkvmerge v15.0.0 ('Duel with the Devil') 64-bit 2017-12-08 01:21:13 / mkvmerge v15.0.0 ('Duel with the Devil') 64-bit 2017-12-08 01:21:13 / UTC 2017-12-04T20:06:24Z
    FromStats_BitRate                        : 6444628
    FromStats_Duration                       : 01:54:44.253000000
    FromStats_FrameCount                     : 165057
    FromStats_StreamSize                     : 5545807003

    Audio #1
    ID                                       : 2
    Format                                   : DTS
    Format/Info                              : Digital Theater Systems
    Mode                                     : 16
    Format settings, Endianness              : Big
    Codec ID                                 : A_DTS
    Duration                                 : 1 h 54 min
    Bit rate mode                            : Constant
    Bit rate                                 : 768 kb/s
    Channel(s)                               : 6 channels
    Channel positions                        : Front: L C R, Side: L R, LFE
    Sampling rate                            : 48.0 kHz
    Frame rate                               : 93.750 FPS (512 SPF)
    Bit depth                                : 24 bits
    Compression mode                         : Lossy
    Delay relative to video                  : 1 ms
    Stream size                              : 630 MiB (9%)
    Title                                    : DTS-Bluray
    Language                                 : Spanish
    Default                                  : Yes
    Forced                                   : No
    Statistics Tags Issue                    : mkvmerge v15.0.0 ('Duel with the Devil') 64-bit 2017-12-08 01:21:13 / mkvmerge v15.0.0 ('Duel with the Devil') 64-bit 2017-12-08 01:21:13 / UTC 2017-12-04T20:06:24Z
    FromStats_BitRate                        : 767999
    FromStats_Duration                       : 01:54:44.385000000
    FromStats_FrameCount                     : 645411
    FromStats_StreamSize                     : 660900864

    Audio #2
    ID                                       : 3
    Format                                   : DTS
    Format/Info                              : Digital Theater Systems
    Mode                                     : 16
    Format settings, Endianness              : Big
    Codec ID                                 : A_DTS
    Duration                                 : 1 h 54 min
    Bit rate mode                            : Constant
    Bit rate                                 : 1 509 kb/s
    Channel(s)                               : 6 channels
    Channel positions                        : Front: L C R, Side: L R, LFE
    Sampling rate                            : 48.0 kHz
    Frame rate                               : 93.750 FPS (512 SPF)
    Bit depth                                : 24 bits
    Compression mode                         : Lossy
    Stream size                              : 1.21 GiB (17%)
    Title                                    : DTS-Bluray
    Language                                 : English
    Default                                  : No
    Forced                                   : No
    Statistics Tags Issue                    : mkvmerge v15.0.0 ('Duel with the Devil') 64-bit 2017-12-08 01:21:13 / mkvmerge v15.0.0 ('Duel with the Devil') 64-bit 2017-12-08 01:21:13 / UTC 2017-12-04T20:06:24Z
    FromStats_BitRate                        : 1508999
    FromStats_Duration                       : 01:54:43.243000000
    FromStats_FrameCount                     : 645304
    FromStats_StreamSize                     : 1298351648

    Text #1
    ID                                       : 4
    Format                                   : PGS
    Muxing mode                              : zlib
    Codec ID                                 : S_HDMV/PGS
    Codec ID/Info                            : Picture based subtitle format used on BDs/HD-DVDs
    Language                                 : English
    Default                                  : No
    Forced                                   : No
    Statistics Tags Issue                    : mkvmerge v15.0.0 ('Duel with the Devil') 64-bit 2017-12-08 01:21:13 / mkvmerge v15.0.0 ('Duel with the Devil') 64-bit 2017-12-08 01:21:13 / UTC 2017-12-04T20:06:24Z
    FromStats_BitRate                        : 29448
    FromStats_Duration                       : 01:51:29.474000000
    FromStats_FrameCount                     : 2236
    FromStats_StreamSize                     : 24624364

    Text #2
    ID                                       : 5
    Format                                   : PGS
    Muxing mode                              : zlib
    Codec ID                                 : S_HDMV/PGS
    Codec ID/Info                            : Picture based subtitle format used on BDs/HD-DVDs
    Language                                 : Spanish
    Default                                  : No
    Forced                                   : No
    Statistics Tags Issue                    : mkvmerge v15.0.0 ('Duel with the Devil') 64-bit 2017-12-08 01:21:13 / mkvmerge v15.0.0 ('Duel with the Devil') 64-bit 2017-12-08 01:21:13 / UTC 2017-12-04T20:06:24Z
    FromStats_BitRate                        : 29350
    FromStats_Duration                       : 01:53:55.537000000
    FromStats_FrameCount                     : 2276
    FromStats_StreamSize                     : 25078146

    Menu
    00:00:00.000                             : :Opening Titles
    00:01:46.315                             : :Del Spooner
    00:03:29.626                             : :Spoonerville
    00:06:17.919                             : :The Chase
    00:07:56.893                             : :Police Station
    00:10:19.077                             : :Dr. Laning's Hologram
    00:12:10.605                             : :Lawrence Robertson
    00:15:34.684                             : :Susan Calvin's Tour of USR
    00:17:47.358                             : :Sonny
    00:22:51.245                             : :Factory Floor
    00:26:13.405                             : :Caught
    00:26:58.617                             : :The Interrogation
    00:33:22.542                             : :The Cafe
    00:36:02.952                             : :Lanning's House
    00:41:22.897                             : :The End of a Long Day
    00:46:07.265                             : :NS-5 Rollout
    00:49:05.401                             : :Following Bread Crumbs
    00:52:13.881                             : :"You Are Experiencing a Car Accident"
    00:55:21.652                             : :One on One
    00:58:31.091                             : :The Cavalry Arrives
    01:00:06.144                             : :Two Sons
    01:01:08.039                             : :Spooner's Past
    01:07:55.488                             : :The Bike
    01:08:17.468                             : :Sonny's Dream
    01:10:23.678                             : :Robertson's Office
    01:13:16.601                             : :Shell Game
    01:16:53.192                             : :Ghosts in the Machine
    01:18:38.839                             : :Father and Son
    01:20:13.600                             : :Ambush
    01:21:17.664                             : :NS-5s Come On-Line
    01:21:56.829                             : :Robot Wars
    01:27:28.910                             : :The Back Door
    01:28:57.040                             : :The Standoff
    01:32:59.032                             : :Viki Level
    01:34:44.512                             : :Unauthorized Entry
    01:38:08.841                             : :"Save Her!"
    01:41:10.273                             : :Reconciliation
    01:44:14.790                             : :Sonny's Future
    01:45:02.129                             : :End Titles

  • Peso: 7.01 GiB

Sinopsis

En el año 2035, los robots son unos dispositivos que usamos todos los días y en quienes confiamos, excepto un detective paranoico (Smith), investigando lo que solo él cree que es un crimen perpetrado por un robot. El caso lo lleva a descubrir algo aún peor que amenaza la raza humana. Will Smith protagoniza este thriller de acción inspirado en la clásica colección de relatos cortos de Isaac Asimov, y llevado al cine por el dinámico y visionario director Alex Proyas (Dark City, El cuervo). En esta película se emplean las más modernas y espectaculares técnicas de efectos visuales para dar vida al mundo de los robots.

Ficha técnica

Video trailer de la película

Enlaces de descarga

Rip de Bluray

Descargar Yo, robot (2004) Full 1080p Latino




Aportes de DPeliculasHDmega la pass es:dpeliculashdmega.org Aportes de CinemaniaHD la pass es:eatsouthward.com

Películas relacionadas

  • Bushwick (2017) 1080p Latino

    2017
    Bushwick (2017) 1080p Latino

    5.0 1h 34m 2017

    Cuando Lucy sale del metro en Bushwick, el último barrio de moda de Nueva York, no encuentra ni hipsters...

    Director: Jonathan Milott

    Género: Acción

    Actores: Myra Lucretia Taylor

  • Gun shy (2017) 1080p Latino

    2017
    Gun shy (2017) 1080p Latino

    0.0 1h 31m 2017

    Basada en la novela homónima de Mark Haskell Smith. Turk Henry es una antigua estrella de rock con sobrepeso...

    Director: Simon West

    Género: Acción

    Actores: Sebastián Apiolaza

  • Deep Blue Sea 2 (2018) 1080p Latino

    2018
    Deep Blue Sea 2 (2018) 1080p Latino

    5.0 1h 34m 2018

    La Doctora Misty Calhoun, conservacionista de tiburones, es invitada para asesorar un proyecto secreto...

    Director: Darin Scott

    Género: Acción

    Actores: Rob Mayes

  • Maze Runner prueba de fuego (2015) Full 1080p Latino

    2015
    Maze Runner prueba de fuego (2015) Full 1080p Latino

    5.0 2 h 11 min 2015

    En este nuevo capítulo de la trepidante saga "El Corredor del Laberinto", Thomas (Dylan O'Brien) y el...

    Director: Wes Ball

    Género: Acción

    Actores: Thomas Brodie-Sangster

  • Maze Runner correr o morir (2014) Full 1080p Latino

    2014
    Maze Runner correr o morir (2014) Full 1080p Latino

    5.0 1 h 53 min 2014

    Thomas abre los ojos y se da cuenta que está en un ascensor. Lo extraño es que no recuerda nada, ni...

    Director: Wes Ball

    Género: Acción

    Actores: Will Poulter

Comentarios 2
  • Andrew - 08 diciembre, 2017

    Habra enlaces de mega???

    • Dpelis2 - 09 diciembre, 2017

      links agregados

-->