Una pareja explosiva 3 (2007) Full 1080p Latino

1.063 vistas
1 estrella2 estrellas3 estrellas4 estrellas5 estrellas (1 votos, promedio: 5,00 de 5)
Cargando…

Información de Una pareja explosiva 3 (2007) Full 1080p Latino

Datos de la película

  • Calidad: Full 1080p
  • Audio: Español Latino AC3 2.0 DVD - Ingles DTS 5.1 BLURAY
  • Subtitulos: Español Latino PGS
  • Resolución: 1920X1080p
  • Formato: MKV
  • Codec: H.264
  • Encoder: Dracarys
  • Mediainfo: Clic para Mostrar Datos Ver
  • Format                                   : Matroska
    Format version                           : Version 4 / Version 2
    File size                                : 5.07 GiB
    Duration                                 : 1 h 30 min
    Overall bit rate                         : 7 992 kb/s
    Movie name                               : CinemaniaHDD.com
    Encoded date                             : UTC 2017-12-29 01:29:41 / UTC 2017-12-27T22:43:29Z
    Writing application                      : mkvmerge v15.0.0 ('Duel with the Devil') 64-bit
    Writing library                          : libebml v1.3.5 + libmatroska v1.4.5 / Lavf57.7.2

    Video
    ID                                       : 1
    Format                                   : AVC
    Format/Info                              : Advanced Video Codec
    Format profile                           : [email protected]
    Format settings                          : CABAC / 4 Ref Frames
    Format settings, CABAC                   : Yes
    Format settings, RefFrames               : 4 frames
    Codec ID                                 : V_MPEG4/ISO/AVC
    Duration                                 : 1 h 30 min
    Bit rate                                 : 6 132 kb/s
    Width                                    : 1 920 pixels
    Height                                   : 1 080 pixels
    Display aspect ratio                     : 16:9
    Frame rate mode                          : Constant
    Frame rate                               : 23.976 (24000/1001) FPS
    Color space                              : YUV
    Chroma subsampling                       : 4:2:0
    Bit depth                                : 8 bits
    Scan type                                : Progressive
    Bits/(Pixel*Frame)                       : 0.123
    Stream size                              : 3.89 GiB (77%)
    Title                                    : Una pareja explosiva 3 (2007) Full 1080p Latino
    Writing library                          : x264 core 148 r2708 86b7198
    Encoding settings                        : cabac=1 / ref=4 / deblock=1:0:0 / analyse=0x3:0x133 / me=esa / subme=10 / psy=1 / psy_rd=1.00:0.00 / mixed_ref=1 / me_range=24 / chroma_me=1 / trellis=2 / 8x8dct=1 / cqm=0 / deadzone=21,11 / fast_pskip=1 / chroma_qp_offset=-2 / threads=34 / lookahead_threads=5 / sliced_threads=0 / nr=0 / decimate=1 / interlaced=0 / bluray_compat=0 / constrained_intra=0 / bframes=8 / b_pyramid=2 / b_adapt=2 / b_bias=0 / direct=3 / weightb=1 / open_gop=0 / weightp=2 / keyint=240 / keyint_min=24 / scenecut=40 / intra_refresh=0 / rc_lookahead=60 / rc=crf / mbtree=1 / crf=20.0 / qcomp=0.60 / qpmin=0 / qpmax=69 / qpstep=4 / vbv_maxrate=62500 / vbv_bufsize=78125 / crf_max=0.0 / nal_hrd=none / filler=0 / ip_ratio=1.40 / aq=1:1.00
    Language                                 : English
    Default                                  : Yes
    Forced                                   : No
    Color range                              : Limited
    Color primaries                          : BT.709
    Transfer characteristics                 : BT.709
    Matrix coefficients                      : BT.709
    Statistics Tags Issue                    : mkvmerge v15.0.0 ('Duel with the Devil') 64-bit 2017-12-29 01:29:41 / mkvmerge v15.0.0 ('Duel with the Devil') 64-bit 2017-12-29 01:29:41 / UTC 2017-12-27T22:43:29Z
    FromStats_BitRate                        : 6262864
    FromStats_Duration                       : 01:30:47.484000000
    FromStats_FrameCount                     : 130609
    FromStats_StreamSize                     : 4264606616

    Audio #1
    ID                                       : 2
    Format                                   : AC-3
    Format/Info                              : Audio Coding 3
    Mode                                     : Dolby Digital
    Format settings, Endianness              : Big
    Codec ID                                 : A_AC3
    Duration                                 : 1 h 30 min
    Bit rate mode                            : Constant
    Bit rate                                 : 192 kb/s
    Channel(s)                               : 2 channels
    Channel positions                        : Front: L R
    Sampling rate                            : 48.0 kHz
    Frame rate                               : 31.250 FPS (1536 SPF)
    Bit depth                                : 16 bits
    Compression mode                         : Lossy
    Stream size                              : 125 MiB (2%)
    Language                                 : Spanish
    Service kind                             : Complete Main
    Default                                  : Yes
    Forced                                   : No
    Statistics Tags Issue                    : mkvmerge v15.0.0 ('Duel with the Devil') 64-bit 2017-12-29 01:29:41 / mkvmerge v15.0.0 ('Duel with the Devil') 64-bit 2017-12-29 01:29:41 / UTC 2017-12-27T22:43:29Z
    FromStats_BitRate                        : 192000
    FromStats_Duration                       : 01:30:47.168000000
    FromStats_FrameCount                     : 170224
    FromStats_StreamSize                     : 130732032

    Audio #2
    ID                                       : 3
    Format                                   : DTS
    Format/Info                              : Digital Theater Systems
    Mode                                     : 16
    Format settings, Endianness              : Big
    Codec ID                                 : A_DTS
    Duration                                 : 1 h 30 min
    Bit rate mode                            : Constant
    Bit rate                                 : 1 509 kb/s
    Channel(s)                               : 6 channels
    Channel positions                        : Front: L C R, Side: L R, LFE
    Sampling rate                            : 48.0 kHz
    Frame rate                               : 93.750 FPS (512 SPF)
    Bit depth                                : 24 bits
    Compression mode                         : Lossy
    Stream size                              : 980 MiB (19%)
    Language                                 : English
    Default                                  : No
    Forced                                   : No
    Statistics Tags Issue                    : mkvmerge v15.0.0 ('Duel with the Devil') 64-bit 2017-12-29 01:29:41 / mkvmerge v15.0.0 ('Duel with the Devil') 64-bit 2017-12-29 01:29:41 / UTC 2017-12-27T22:43:29Z
    FromStats_BitRate                        : 1508999
    FromStats_Duration                       : 01:30:47.478000000
    FromStats_FrameCount                     : 510701
    FromStats_StreamSize                     : 1027530412

    Text
    ID                                       : 4
    Format                                   : PGS
    Muxing mode                              : zlib
    Codec ID                                 : S_HDMV/PGS
    Codec ID/Info                            : Picture based subtitle format used on BDs/HD-DVDs
    Language                                 : Spanish
    Default                                  : No
    Forced                                   : No
    Statistics Tags Issue                    : mkvmerge v15.0.0 ('Duel with the Devil') 64-bit 2017-12-29 01:29:41 / mkvmerge v15.0.0 ('Duel with the Devil') 64-bit 2017-12-29 01:29:41 / UTC 2017-12-27T22:43:29Z
    FromStats_BitRate                        : 56859
    FromStats_Duration                       : 01:29:36.335000000
    FromStats_FrameCount                     : 2920
    FromStats_StreamSize                     : 38211651

    Menu
    00:00:00.000                             : :Chapter 1
    00:05:06.389                             : :Chapter 2
    00:09:24.022                             : :Chapter 3
    00:12:03.389                             : :Chapter 4
    00:17:20.957                             : :Chapter 5
    00:20:43.868                             : :Chapter 6
    00:24:05.945                             : :Chapter 7
    00:29:48.370                             : :Chapter 8
    00:35:57.906                             : :Chapter 9
    00:41:56.264                             : :Chapter 10
    00:47:48.157                             : :Chapter 11
    00:54:17.129                             : :Chapter 12
    01:05:50.864                             : :Chapter 13
    01:11:06.429                             : :Chapter 14
    01:15:14.635                             : :Chapter 15
    01:21:43.649                             : :Chapter 16

     

  • Peso: 5.07 GiB

Sinopsis

El corazón de París esconde un secreto mortal. Al otro lado del mundo, en Los Ángeles, el embajador Han está a punto de divulgar ese secreto. Tiene en su poder información sobre los mecanismos internos de las Tríadas, el sindicato del crimen más poderoso y más conocido del mundo. El embajador ha descubierto la identidad de Shy Shen, elemento clave del vasto anillo del crimen, y está a punto de revelarlo al Tribunal Penal Mundial, hasta que la bala de un asesino lo silencia para siempre. Las Tríadas harán cualquier cosa para asegurarse de que sus secretos permanezcan enterrados, y solamente existe una esperanza para poder detenerlos… El detective Carter (Chris Tucker), del departamento de policía de Los Ángeles, y el inspector chino Lee (Jackie Chan) viajan a París para detener una conspiración criminal a nivel global y para salvar la vida de un viejo amigo: la hija del embajador Han: Soo Yung.

Ficha técnica

Video trailer de la película

Enlaces de descarga

Rip de Bluray

Descargar Una pareja explosiva 3 (2007) Full 1080p Latino




Aportes de DPeliculasHDmega la pass es:dpeliculashdmega.org Aportes de CinemaniaHD la pass es:eatsouthward.com

Películas relacionadas

  • Bushwick (2017) 1080p Latino

    2017
    Bushwick (2017) 1080p Latino

    5.0 1h 34m 2017

    Cuando Lucy sale del metro en Bushwick, el último barrio de moda de Nueva York, no encuentra ni hipsters...

    Director: Jonathan Milott

    Género: Acción

    Actores: Myra Lucretia Taylor

  • Gun shy (2017) 1080p Latino

    2017
    Gun shy (2017) 1080p Latino

    0.0 1h 31m 2017

    Basada en la novela homónima de Mark Haskell Smith. Turk Henry es una antigua estrella de rock con sobrepeso...

    Director: Simon West

    Género: Acción

    Actores: Sebastián Apiolaza

  • Deep Blue Sea 2 (2018) 1080p Latino

    2018
    Deep Blue Sea 2 (2018) 1080p Latino

    5.0 1h 34m 2018

    La Doctora Misty Calhoun, conservacionista de tiburones, es invitada para asesorar un proyecto secreto...

    Director: Darin Scott

    Género: Acción

    Actores: Rob Mayes

  • Maze Runner prueba de fuego (2015) Full 1080p Latino

    2015
    Maze Runner prueba de fuego (2015) Full 1080p Latino

    5.0 2 h 11 min 2015

    En este nuevo capítulo de la trepidante saga "El Corredor del Laberinto", Thomas (Dylan O'Brien) y el...

    Director: Wes Ball

    Género: Acción

    Actores: Thomas Brodie-Sangster

  • Maze Runner correr o morir (2014) Full 1080p Latino

    2014
    Maze Runner correr o morir (2014) Full 1080p Latino

    5.0 1 h 53 min 2014

    Thomas abre los ojos y se da cuenta que está en un ascensor. Lo extraño es que no recuerda nada, ni...

    Director: Wes Ball

    Género: Acción

    Actores: Will Poulter

Comentarios 2
  • ToRuKMaTo - 29 diciembre, 2017

    Gracias…por Fin Las Tengo Las 3…..muy amable de t parte….feliz Año Nuevo!!!

    • Dpelis2 - 29 diciembre, 2017

      Saldudos amigo! feliz año para ti tambien 😉

-->