Una pareja explosiva 2 (2001) Full 1080p Latino

1.186 vistas
1 estrella2 estrellas3 estrellas4 estrellas5 estrellas (Ninguna valoración todavía)
Cargando…

Información de Una pareja explosiva 2 (2001) Full 1080p Latino

Datos de la película

  • Calidad: Full 1080p
  • Audio: Español Latino AC3 5.1 BLURAY - Ingles DTS 5.1 BLURAY
  • Subtitulos: Español Latino PGS - Ingles PGS
  • Resolución: 1920X108p
  • Formato: MKV
  • Codec: H.264
  • Encoder: Dracarys
  • Mediainfo: Clic para Mostrar Datos Ver
  • Format                                   : Matroska
    Format version                           : Version 4 / Version 2
    File size                                : 8.14 GiB
    Duration                                 : 1 h 30 min
    Overall bit rate                         : 12.9 Mb/s
    Movie name                               : CinemaniaHDD.com
    Encoded date                             : UTC 2017-12-23 05:58:38 / UTC 2017-12-21T08:23:53Z
    Writing application                      : mkvmerge v15.0.0 ('Duel with the Devil') 64-bit
    Writing library                          : libebml v1.3.5 + libmatroska v1.4.5 / Lavf57.7.2

    Video
    ID                                       : 1
    Format                                   : AVC
    Format/Info                              : Advanced Video Codec
    Format profile                           : [email protected]
    Format settings                          : CABAC / 4 Ref Frames
    Format settings, CABAC                   : Yes
    Format settings, RefFrames               : 4 frames
    Codec ID                                 : V_MPEG4/ISO/AVC
    Duration                                 : 1 h 30 min
    Bit rate                                 : 10.7 Mb/s
    Width                                    : 1 920 pixels
    Height                                   : 1 080 pixels
    Display aspect ratio                     : 16:9
    Frame rate mode                          : Constant
    Frame rate                               : 23.976 (24000/1001) FPS
    Color space                              : YUV
    Chroma subsampling                       : 4:2:0
    Bit depth                                : 8 bits
    Scan type                                : Progressive
    Bits/(Pixel*Frame)                       : 0.216
    Stream size                              : 6.75 GiB (83%)
    Title                                    : Una pareja explosiva 2 (2001) Full 1080p Latino
    Writing library                          : x264 core 148 r2708 86b7198
    Encoding settings                        : cabac=1 / ref=4 / deblock=1:0:0 / analyse=0x3:0x133 / me=esa / subme=10 / psy=1 / psy_rd=1.00:0.00 / mixed_ref=1 / me_range=24 / chroma_me=1 / trellis=2 / 8x8dct=1 / cqm=0 / deadzone=21,11 / fast_pskip=1 / chroma_qp_offset=-2 / threads=34 / lookahead_threads=5 / sliced_threads=0 / nr=0 / decimate=1 / interlaced=0 / bluray_compat=0 / constrained_intra=0 / bframes=8 / b_pyramid=2 / b_adapt=2 / b_bias=0 / direct=3 / weightb=1 / open_gop=0 / weightp=2 / keyint=240 / keyint_min=24 / scenecut=40 / intra_refresh=0 / rc_lookahead=60 / rc=crf / mbtree=1 / crf=20.0 / qcomp=0.60 / qpmin=0 / qpmax=69 / qpstep=4 / vbv_maxrate=62500 / vbv_bufsize=78125 / crf_max=0.0 / nal_hrd=none / filler=0 / ip_ratio=1.40 / aq=1:1.00
    Language                                 : English
    Default                                  : Yes
    Forced                                   : No
    Color range                              : Limited
    Color primaries                          : BT.709
    Transfer characteristics                 : BT.709
    Matrix coefficients                      : BT.709
    Statistics Tags Issue                    : mkvmerge v15.0.0 ('Duel with the Devil') 64-bit 2017-12-23 05:58:38 / mkvmerge v15.0.0 ('Duel with the Devil') 64-bit 2017-12-23 05:58:38 / UTC 2017-12-21T08:23:53Z
    FromStats_BitRate                        : 10946129
    FromStats_Duration                       : 01:30:06.985000000
    FromStats_FrameCount                     : 129638
    FromStats_StreamSize                     : 7398194437

    Audio #1
    ID                                       : 2
    Format                                   : AC-3
    Format/Info                              : Audio Coding 3
    Format settings, Endianness              : Big
    Codec ID                                 : A_AC3
    Duration                                 : 1 h 30 min
    Bit rate mode                            : Constant
    Bit rate                                 : 448 kb/s
    Channel(s)                               : 6 channels
    Channel positions                        : Front: L C R, Side: L R, LFE
    Sampling rate                            : 48.0 kHz
    Frame rate                               : 31.250 FPS (1536 SPF)
    Bit depth                                : 16 bits
    Compression mode                         : Lossy
    Stream size                              : 289 MiB (3%)
    Language                                 : Spanish
    Service kind                             : Complete Main
    Default                                  : Yes
    Forced                                   : No
    Statistics Tags Issue                    : mkvmerge v15.0.0 ('Duel with the Devil') 64-bit 2017-12-23 05:58:38 / mkvmerge v15.0.0 ('Duel with the Devil') 64-bit 2017-12-23 05:58:38 / UTC 2017-12-21T08:23:53Z
    FromStats_BitRate                        : 448000
    FromStats_Duration                       : 01:30:07.040000000
    FromStats_FrameCount                     : 168970
    FromStats_StreamSize                     : 302794240

    Audio #2
    ID                                       : 3
    Format                                   : DTS
    Format/Info                              : Digital Theater Systems
    Mode                                     : 16
    Format settings, Endianness              : Big
    Codec ID                                 : A_DTS
    Duration                                 : 1 h 30 min
    Bit rate mode                            : Constant
    Bit rate                                 : 1 509 kb/s
    Channel(s)                               : 6 channels
    Channel positions                        : Front: L C R, Side: L R, LFE
    Sampling rate                            : 48.0 kHz
    Frame rate                               : 93.750 FPS (512 SPF)
    Bit depth                                : 24 bits
    Compression mode                         : Lossy
    Stream size                              : 973 MiB (12%)
    Language                                 : English
    Default                                  : No
    Forced                                   : No
    Statistics Tags Issue                    : mkvmerge v15.0.0 ('Duel with the Devil') 64-bit 2017-12-23 05:58:38 / mkvmerge v15.0.0 ('Duel with the Devil') 64-bit 2017-12-23 05:58:38 / UTC 2017-12-21T08:23:53Z
    FromStats_BitRate                        : 1508999
    FromStats_Duration                       : 01:30:07.019000000
    FromStats_FrameCount                     : 506908
    FromStats_StreamSize                     : 1019898896

    Text #1
    ID                                       : 4
    Format                                   : PGS
    Muxing mode                              : zlib
    Codec ID                                 : S_HDMV/PGS
    Codec ID/Info                            : Picture based subtitle format used on BDs/HD-DVDs
    Language                                 : English
    Default                                  : No
    Forced                                   : No
    Statistics Tags Issue                    : mkvmerge v15.0.0 ('Duel with the Devil') 64-bit 2017-12-23 05:58:38 / mkvmerge v15.0.0 ('Duel with the Devil') 64-bit 2017-12-23 05:58:38 / UTC 2017-12-21T08:23:53Z
    FromStats_BitRate                        : 38595
    FromStats_Duration                       : 01:29:14.515000000
    FromStats_FrameCount                     : 2850
    FromStats_StreamSize                     : 25832483

    Text #2
    ID                                       : 5
    Format                                   : PGS
    Muxing mode                              : zlib
    Codec ID                                 : S_HDMV/PGS
    Codec ID/Info                            : Picture based subtitle format used on BDs/HD-DVDs
    Language                                 : Spanish
    Default                                  : No
    Forced                                   : No
    Statistics Tags Issue                    : mkvmerge v15.0.0 ('Duel with the Devil') 64-bit 2017-12-23 05:58:38 / mkvmerge v15.0.0 ('Duel with the Devil') 64-bit 2017-12-23 05:58:38 / UTC 2017-12-21T08:23:53Z
    FromStats_BitRate                        : 31608
    FromStats_Duration                       : 01:29:17.185000000
    FromStats_FrameCount                     : 2472
    FromStats_StreamSize                     : 21166611

    Menu
    00:00:00.000                             : :Chapter 1
    00:04:37.235                             : :Chapter 2
    00:13:30.601                             : :Chapter 3
    00:21:42.885                             : :Chapter 4
    00:27:48.834                             : :Chapter 5
    00:33:22.918                             : :Chapter 6
    00:38:50.245                             : :Chapter 7
    00:47:11.078                             : :Chapter 8
    00:51:18.117                             : :Chapter 9
    00:58:56.241                             : :Chapter 10
    01:03:52.037                             : :Chapter 11
    01:08:59.093                             : :Chapter 12
    01:14:51.570                             : :Chapter 13
    01:17:29.603                             : :Chapter 14
    01:22:03.335                             : :Chapter 15
    01:24:38.115                             : :Chapter 16

  • Peso: 8.14 GiB

Sinopsis

El detective James Carter se encuentra de vacaciones en Hong Kong con su buen amigo el detective Lee. Mientras Carter está ansioso por dedicarse a la juerga y las mujeres, Lee tiene que enfrentarse con un jefe de las Tríadas, responsable del asesinato de dos funcionarios de la embajada norteamericana. Conforme avancen en la investigación, descubrirán una trama de distribución de billetes falsos.

Ficha técnica

Video trailer de la película

Enlaces de descarga

Rip de Bluray

Descargar Una pareja explosiva 2 (2001) Full 1080p Latino




Aportes de DPeliculasHDmega la pass es:dpeliculashdmega.org Aportes de CinemaniaHD la pass es:eatsouthward.com

Películas relacionadas

  • Dude (2018) NF 1080p Latino

    2018
    Dude (2018) NF 1080p Latino

    0.0 1h 30m 2018

    Cuatro mejores amigas se tienen que enfrentar a su nueva vida. Las dos últimas semanas de instituto...

    Director: Olivia Milch

    Género: Comedia

    Actores: Sydney Lucas

  • Hangman (2017) 1080p Latino

    2017
    Hangman (2017) 1080p Latino

    0.0 2h 0m 2017

    Archer es un detective de homicidios (Al Pacino) que se une a un detective de crímenes comunes (Urban)...

    Director: Marc Dahlstrom

    Género: Crimen

    Actores: Steve Coulter

  • Bushwick (2017) 1080p Latino

    2017
    Bushwick (2017) 1080p Latino

    5.0 1h 34m 2017

    Cuando Lucy sale del metro en Bushwick, el último barrio de moda de Nueva York, no encuentra ni hipsters...

    Director: Jonathan Milott

    Género: Acción

    Actores: Myra Lucretia Taylor

  • Gun shy (2017) 1080p Latino

    2017
    Gun shy (2017) 1080p Latino

    0.0 1h 31m 2017

    Basada en la novela homónima de Mark Haskell Smith. Turk Henry es una antigua estrella de rock con sobrepeso...

    Director: Simon West

    Género: Acción

    Actores: Sebastián Apiolaza

  • Deep Blue Sea 2 (2018) 1080p Latino

    2018
    Deep Blue Sea 2 (2018) 1080p Latino

    5.0 1h 34m 2018

    La Doctora Misty Calhoun, conservacionista de tiburones, es invitada para asesorar un proyecto secreto...

    Director: Darin Scott

    Género: Acción

    Actores: Rob Mayes

Comentarios 5
  • Tio Higuera - 28 diciembre, 2017

    buena pelicula, gracias.

  • criss - 27 diciembre, 2017

    gracias por ambas pelis. espero suban las tres

    • Dpelis2 - 27 diciembre, 2017

      Pronto Saludos

  • luis - 25 diciembre, 2017

    gracias por estos aportes cuando subiras la tercera parte¿

    • Dpelis2 - 26 diciembre, 2017

      pronto

-->