Una pareja explosiva (1998) Full 1080p Latino

1.177 vistas
1 estrella2 estrellas3 estrellas4 estrellas5 estrellas (1 votos, promedio: 5,00 de 5)
Cargando…

Información de Una pareja explosiva (1998) Full 1080p Latino

Datos de la película

  • Calidad: Full 1080p
  • Audio: Español Latino AC3 2.0 BLURAY - Ingles DTS 5.1 BLURAY
  • Subtitulos: Español Latino PGS - Ingles PGS
  • Resolución: 1920X1080
  • Formato: MKV
  • Codec: H.264
  • Encoder: Dracarys
  • Mediainfo: Clic para Mostrar Datos Ver
  • Format                                   : Matroska
    Format version                           : Version 4 / Version 2
    File size                                : 5.35 GiB
    Duration                                 : 1 h 37 min
    Overall bit rate                         : 7 826 kb/s
    Movie name                               : CinemaniaHDD.com
    Encoded date                             : UTC 2017-12-23 05:35:15 / UTC 2017-12-21T11:20:28Z
    Writing application                      : mkvmerge v15.0.0 ('Duel with the Devil') 64-bit
    Writing library                          : libebml v1.3.5 + libmatroska v1.4.5 / Lavf57.7.2

    Video
    ID                                       : 1
    Format                                   : AVC
    Format/Info                              : Advanced Video Codec
    Format profile                           : [email protected]
    Format settings                          : CABAC / 4 Ref Frames
    Format settings, CABAC                   : Yes
    Format settings, RefFrames               : 4 frames
    Codec ID                                 : V_MPEG4/ISO/AVC
    Duration                                 : 1 h 37 min
    Bit rate                                 : 5 970 kb/s
    Width                                    : 1 920 pixels
    Height                                   : 1 080 pixels
    Display aspect ratio                     : 16:9
    Frame rate mode                          : Constant
    Frame rate                               : 23.976 (24000/1001) FPS
    Color space                              : YUV
    Chroma subsampling                       : 4:2:0
    Bit depth                                : 8 bits
    Scan type                                : Progressive
    Bits/(Pixel*Frame)                       : 0.120
    Stream size                              : 4.08 GiB (76%)
    Title                                    : Una pareja explosiva (1998) Full 1080p Latino
    Writing library                          : x264 core 148 r2708 86b7198
    Encoding settings                        : cabac=1 / ref=4 / deblock=1:0:0 / analyse=0x3:0x133 / me=esa / subme=10 / psy=1 / psy_rd=1.00:0.00 / mixed_ref=1 / me_range=24 / chroma_me=1 / trellis=2 / 8x8dct=1 / cqm=0 / deadzone=21,11 / fast_pskip=1 / chroma_qp_offset=-2 / threads=34 / lookahead_threads=5 / sliced_threads=0 / nr=0 / decimate=1 / interlaced=0 / bluray_compat=0 / constrained_intra=0 / bframes=8 / b_pyramid=2 / b_adapt=2 / b_bias=0 / direct=3 / weightb=1 / open_gop=0 / weightp=2 / keyint=240 / keyint_min=24 / scenecut=40 / intra_refresh=0 / rc_lookahead=60 / rc=crf / mbtree=1 / crf=20.0 / qcomp=0.60 / qpmin=0 / qpmax=69 / qpstep=4 / vbv_maxrate=62500 / vbv_bufsize=78125 / crf_max=0.0 / nal_hrd=none / filler=0 / ip_ratio=1.40 / aq=1:1.00
    Language                                 : English
    Default                                  : Yes
    Forced                                   : No
    Color range                              : Limited
    Color primaries                          : BT.709
    Transfer characteristics                 : BT.709
    Matrix coefficients                      : BT.709
    Statistics Tags Issue                    : mkvmerge v15.0.0 ('Duel with the Devil') 64-bit 2017-12-23 05:35:15 / mkvmerge v15.0.0 ('Duel with the Devil') 64-bit 2017-12-23 05:35:15 / UTC 2017-12-21T11:20:28Z
    FromStats_BitRate                        : 6090912
    FromStats_Duration                       : 01:37:49.906000000
    FromStats_FrameCount                     : 140737
    FromStats_StreamSize                     : 4469135144

    Audio #1
    ID                                       : 2
    Format                                   : AC-3
    Format/Info                              : Audio Coding 3
    Mode                                     : Dolby Digital
    Format settings, Endianness              : Big
    Codec ID                                 : A_AC3
    Duration                                 : 1 h 37 min
    Bit rate mode                            : Constant
    Bit rate                                 : 192 kb/s
    Channel(s)                               : 2 channels
    Channel positions                        : Front: L R
    Sampling rate                            : 48.0 kHz
    Frame rate                               : 31.250 FPS (1536 SPF)
    Bit depth                                : 16 bits
    Compression mode                         : Lossy
    Stream size                              : 134 MiB (2%)
    Language                                 : Spanish
    Service kind                             : Complete Main
    Default                                  : Yes
    Forced                                   : No
    Statistics Tags Issue                    : mkvmerge v15.0.0 ('Duel with the Devil') 64-bit 2017-12-23 05:35:15 / mkvmerge v15.0.0 ('Duel with the Devil') 64-bit 2017-12-23 05:35:15 / UTC 2017-12-21T11:20:28Z
    FromStats_BitRate                        : 192000
    FromStats_Duration                       : 01:37:49.920000000
    FromStats_FrameCount                     : 183435
    FromStats_StreamSize                     : 140878080

    Audio #2
    ID                                       : 3
    Format                                   : DTS
    Format/Info                              : Digital Theater Systems
    Format profile                           : ES Matrix / Core
    Mode                                     : 16
    Format settings, Endianness              : Big
    Codec ID                                 : A_DTS
    Duration                                 : 1 h 37 min
    Bit rate mode                            : Constant
    Bit rate                                 : 1 509 kb/s
    Channel(s)                               : 7 channels / 6 channels
    Channel positions                        : Front: L C R, Side: L R, Back: C, LFE / Front: L C R, Side: L R, LFE
    Sampling rate                            : 48.0 kHz
    Frame rate                               : 93.750 FPS (512 SPF)
    Bit depth                                : 24 bits
    Compression mode                         : Lossy
    Stream size                              : 1.03 GiB (19%)
    Language                                 : English
    Default                                  : No
    Forced                                   : No
    Statistics Tags Issue                    : mkvmerge v15.0.0 ('Duel with the Devil') 64-bit 2017-12-23 05:35:15 / mkvmerge v15.0.0 ('Duel with the Devil') 64-bit 2017-12-23 05:35:15 / UTC 2017-12-21T11:20:28Z
    FromStats_BitRate                        : 1508999
    FromStats_Duration                       : 01:37:49.899000000
    FromStats_FrameCount                     : 550303
    FromStats_StreamSize                     : 1107209636

    Text #1
    ID                                       : 4
    Format                                   : PGS
    Muxing mode                              : zlib
    Codec ID                                 : S_HDMV/PGS
    Codec ID/Info                            : Picture based subtitle format used on BDs/HD-DVDs
    Language                                 : English
    Default                                  : No
    Forced                                   : No
    Statistics Tags Issue                    : mkvmerge v15.0.0 ('Duel with the Devil') 64-bit 2017-12-23 05:35:15 / mkvmerge v15.0.0 ('Duel with the Devil') 64-bit 2017-12-23 05:35:15 / UTC 2017-12-21T11:20:28Z
    FromStats_BitRate                        : 41866
    FromStats_Duration                       : 01:35:54.582000000
    FromStats_FrameCount                     : 2860
    FromStats_StreamSize                     : 30115494

    Text #2
    ID                                       : 5
    Format                                   : PGS
    Muxing mode                              : zlib
    Codec ID                                 : S_HDMV/PGS
    Codec ID/Info                            : Picture based subtitle format used on BDs/HD-DVDs
    Language                                 : Spanish
    Default                                  : No
    Forced                                   : No
    Statistics Tags Issue                    : mkvmerge v15.0.0 ('Duel with the Devil') 64-bit 2017-12-23 05:35:15 / mkvmerge v15.0.0 ('Duel with the Devil') 64-bit 2017-12-23 05:35:15 / UTC 2017-12-21T11:20:28Z
    FromStats_BitRate                        : 31686
    FromStats_Duration                       : 01:37:02.400000000
    FromStats_FrameCount                     : 2583
    FromStats_StreamSize                     : 23061784

    Menu
    00:00:00.000                             : :Chapter 1
    00:02:28.023                             : :Chapter 2
    00:04:01.742                             : :Chapter 3
    00:06:10.787                             : :Chapter 4
    00:09:28.902                             : :Chapter 5
    00:12:03.306                             : :Chapter 6
    00:15:16.958                             : :Chapter 7
    00:17:11.697                             : :Chapter 8
    00:20:01.701                             : :Chapter 9
    00:22:53.581                             : :Chapter 10
    00:27:04.456                             : :Chapter 11
    00:29:16.964                             : :Chapter 12
    00:34:39.578                             : :Chapter 13
    00:35:50.482                             : :Chapter 14
    00:38:46.908                             : :Chapter 15
    00:41:35.326                             : :Chapter 16
    00:43:32.360                             : :Chapter 17
    00:46:48.889                             : :Chapter 18
    00:48:42.294                             : :Chapter 19
    00:51:11.902                             : :Chapter 20
    00:54:45.866                             : :Chapter 21
    00:57:35.077                             : :Chapter 22
    00:59:36.281                             : :Chapter 23
    01:02:47.681                             : :Chapter 24
    01:06:05.753                             : :Chapter 25
    01:08:14.132                             : :Chapter 26
    01:10:50.163                             : :Chapter 27
    01:13:07.925                             : :Chapter 28
    01:16:33.380                             : :Chapter 29
    01:18:47.139                             : :Chapter 30
    01:22:06.755                             : :Chapter 31
    01:23:43.977                             : :Chapter 32
    01:25:58.570                             : :Chapter 33
    01:28:01.276                             : :Chapter 34
    01:29:57.392                             : :Chapter 35
    01:32:10.775                             : :Chapter 36
    01:35:16.836                             : :Chapter 37

  • Peso: 5.35 GiB

Sinopsis

Dos detectives diferentes son asignados en un mismo caso. Ambos tendrán que adaptarse a las costumbres del otro para poder concluir su trabajo con éxito, pero no va a ser una tarea fácil. El detective inspector Lee (Jackie Chan) es el rey de las artes marciales y pertenece a la Royal Hong Kong Police. Su pupila preferida es la hija de once años del Cónsul chino, de la cual el inspector Lee es su guardaespaldas y su mejor amigo. Esta muchacha es capturada y llevada a los Estados Unidos por un peligroso grupo criminal. Hasta allí tendrá que viajar el inspector y, donde se unirá a la investigación con un departamento del FBI y, concretamente, al detective James Carter (Tucker), un arrogante e impulsivo agente de policía. La explosiva pareja tendrá que enfrentarse a una banda de criminales muy peligrosa, y contarán con la ayuda de Tania Johnson (Elizabeth Peña), una experta en artefactos explosivos.

Ficha técnica

Video trailer de la película

Enlaces de descarga

Rip de Bluray

Descargar Una pareja explosiva (1998) Full 1080p Latino




Aportes de DPeliculasHDmega la pass es:dpeliculashdmega.org Aportes de CinemaniaHD la pass es:eatsouthward.com

Películas relacionadas

  • Batman Ninja (2018) WEB-DL 1080p Latino

    2018
    Batman Ninja (2018) WEB-DL 1080p Latino

    5.0 1h 25m 2018

    Batman, junto a sus aliados y enemigos, se ve transportado desde la moderna Gotham hasta el Japón feudal....

    Director: Junpei Mizusaki

    Género: Acción

    Actores: Yuuki Kaji

  • Niños del hombre (2006) Full 1080p Latino

    2006
    Niños del hombre (2006) Full 1080p Latino

    0.0 1 h 49 min 2006

    Año 2027: el ser humano está al borde de la extinción: los hombres han perdido la capacidad de procrear...

    Director: Terry Needham

    Género: Acción

    Actores: Yolanda Vazquez

  • Winchester (2018) 1080p Latino

    2018
    Winchester (2018) 1080p Latino

    0.0 1h 39m 2018

    A finales del siglo XIX, después de la trágica muerte de su marido y su hijo, Sarah construye una casa-fortaleza...

    Director: Peter Spierig

    Género: Fantasía

    Actores: Xavier Gouault

  • Unlocked (2017) 1080p Latino

    2017
    Unlocked (2017) 1080p Latino

    3.0 1h 43m 2017

    Gira en torno a una agente de la CIA, especializada en interrogatorios, que es engañada por un sospechoso,...

    Director: Vera Homolacova

    Género: Acción

    Actores: Tosin Cole

Comentarios 6
  • Alexis - 29 diciembre, 2017

    Buenas noches, gracias por subir la saga completa pero esta tiene un desfase en toda la peli :/

    • dpelis - 30 diciembre, 2017

      use delay -200 y qda bien, lo raro nose porque el desafe. saludos

  • Tio Higuera - 28 diciembre, 2017

    buena pelicula, gracias.

  • kike74 - 24 diciembre, 2017

    Hola!
    muchas gracias por estas películas, ojala que puedan subir todas las películas de Jackie chang. son los mejores!!!

    • Dpelis2 - 24 diciembre, 2017

      Lo intentaremos Saludos

  • ToRuKMaTo - 23 diciembre, 2017

    si…tremendos clasicos…..mi amigo me llevo las 3 ok….muchas gracias..#Felices Fiestas!!

-->