Tulip Fever (2017) 1080p Latino

889 vistas
1 estrella2 estrellas3 estrellas4 estrellas5 estrellas (Ninguna valoración todavía)
Cargando…

Información de Tulip Fever (2017) 1080p Latino

Datos de la película

  • Calidad: 1080p
  • Audio: Español Latino AC3 2.0 Capturado - Ingles AC3 5.1 BLURAY
  • Subtitulos: Español Latino SRT
  • Resolución: 1920X802
  • Formato: MKV
  • Codec: H.264
  • Encoder: Dracarys
  • Mediainfo: Clic para Mostrar Datos Ver
  • Format                                   : Matroska
    Format version                           : Version 4 / Version 2
    File size                                : 2.97 GiB
    Duration                                 : 1 h 44 min
    Overall bit rate                         : 4 059 kb/s
    Movie name                               : CinemaniaHDD.com
    Encoded date                             : UTC 2017-12-15 23:52:41 / UTC 2017-12-15T23:14:32Z
    Writing application                      : mkvmerge v15.0.0 ('Duel with the Devil') 64-bit
    Writing library                          : libebml v1.3.5 + libmatroska v1.4.5 / Lavf57.7.2

    Video
    ID                                       : 1
    Format                                   : AVC
    Format/Info                              : Advanced Video Codec
    Format profile                           : [email protected]
    Format settings                          : CABAC / 4 Ref Frames
    Format settings, CABAC                   : Yes
    Format settings, RefFrames               : 4 frames
    Codec ID                                 : V_MPEG4/ISO/AVC
    Duration                                 : 1 h 44 min
    Bit rate                                 : 3 500 kb/s
    Width                                    : 1 920 pixels
    Height                                   : 802 pixels
    Display aspect ratio                     : 2.40:1
    Frame rate mode                          : Constant
    Frame rate                               : 23.976 (24000/1001) FPS
    Color space                              : YUV
    Chroma subsampling                       : 4:2:0
    Bit depth                                : 8 bits
    Scan type                                : Progressive
    Bits/(Pixel*Frame)                       : 0.095
    Stream size                              : 2.49 GiB (84%)
    Title                                    : Tulip Fever (2017) 1080p Latino
    Writing library                          : x264 core 148 r2708 86b7198
    Encoding settings                        : cabac=1 / ref=3 / deblock=1:0:0 / analyse=0x3:0x113 / me=hex / subme=7 / psy=1 / psy_rd=1.00:0.00 / mixed_ref=1 / me_range=16 / chroma_me=1 / trellis=1 / 8x8dct=1 / cqm=0 / deadzone=21,11 / fast_pskip=1 / chroma_qp_offset=-2 / threads=25 / lookahead_threads=4 / sliced_threads=0 / nr=0 / decimate=1 / interlaced=0 / bluray_compat=0 / constrained_intra=0 / bframes=3 / b_pyramid=2 / b_adapt=1 / b_bias=0 / direct=1 / weightb=1 / open_gop=0 / weightp=2 / keyint=240 / keyint_min=24 / scenecut=40 / intra_refresh=0 / rc_lookahead=40 / rc=abr / mbtree=1 / bitrate=3500 / ratetol=1.0 / qcomp=0.60 / qpmin=0 / qpmax=69 / qpstep=4 / vbv_maxrate=62500 / vbv_bufsize=78125 / nal_hrd=none / filler=0 / ip_ratio=1.40 / aq=1:1.00
    Language                                 : English
    Default                                  : Yes
    Forced                                   : No
    Color range                              : Limited
    Color primaries                          : BT.709
    Transfer characteristics                 : BT.709
    Matrix coefficients                      : BT.709
    Statistics Tags Issue                    : mkvmerge v15.0.0 ('Duel with the Devil') 64-bit 2017-12-15 23:52:41 / mkvmerge v15.0.0 ('Duel with the Devil') 64-bit 2017-12-15 23:52:41 / UTC 2017-12-15T23:14:32Z
    FromStats_BitRate                        : 3480511
    FromStats_Duration                       : 01:44:50.284000000
    FromStats_FrameCount                     : 150816
    FromStats_StreamSize                     : 2736675684

    Audio #1
    ID                                       : 2
    Format                                   : AC-3
    Format/Info                              : Audio Coding 3
    Format settings, Endianness              : Big
    Codec ID                                 : A_AC3
    Duration                                 : 1 h 44 min
    Bit rate mode                            : Constant
    Bit rate                                 : 192 kb/s
    Channel(s)                               : 2 channels
    Channel positions                        : Front: L R
    Sampling rate                            : 48.0 kHz
    Frame rate                               : 31.250 FPS (1536 SPF)
    Bit depth                                : 16 bits
    Compression mode                         : Lossy
    Delay relative to video                  : -5 ms
    Stream size                              : 144 MiB (5%)
    Language                                 : Spanish
    Service kind                             : Complete Main
    Default                                  : Yes
    Forced                                   : No
    Statistics Tags Issue                    : mkvmerge v15.0.0 ('Duel with the Devil') 64-bit 2017-12-15 23:52:41 / mkvmerge v15.0.0 ('Duel with the Devil') 64-bit 2017-12-15 23:52:41 / UTC 2017-12-15T23:14:32Z
    FromStats_BitRate                        : 192000
    FromStats_Duration                       : 01:44:47.424000000
    FromStats_FrameCount                     : 196482
    FromStats_StreamSize                     : 150898176

    Audio #2
    ID                                       : 3
    Format                                   : AC-3
    Format/Info                              : Audio Coding 3
    Format settings, Endianness              : Big
    Codec ID                                 : A_AC3
    Duration                                 : 1 h 44 min
    Bit rate mode                            : Constant
    Bit rate                                 : 384 kb/s
    Channel(s)                               : 6 channels
    Channel positions                        : Front: L C R, Side: L R, LFE
    Sampling rate                            : 48.0 kHz
    Frame rate                               : 31.250 FPS (1536 SPF)
    Bit depth                                : 16 bits
    Compression mode                         : Lossy
    Delay relative to video                  : -5 ms
    Stream size                              : 288 MiB (9%)
    Language                                 : English
    Service kind                             : Complete Main
    Default                                  : No
    Forced                                   : No
    Statistics Tags Issue                    : mkvmerge v15.0.0 ('Duel with the Devil') 64-bit 2017-12-15 23:52:41 / mkvmerge v15.0.0 ('Duel with the Devil') 64-bit 2017-12-15 23:52:41 / UTC 2017-12-15T23:14:32Z
    FromStats_BitRate                        : 384000
    FromStats_Duration                       : 01:44:50.272000000
    FromStats_FrameCount                     : 196571
    FromStats_StreamSize                     : 301933056

    Text
    ID                                       : 4
    Format                                   : UTF-8
    Codec ID                                 : S_TEXT/UTF8
    Codec ID/Info                            : UTF-8 Plain Text
    Language                                 : Spanish
    Default                                  : No
    Forced                                   : No
    Statistics Tags Issue                    : mkvmerge v15.0.0 ('Duel with the Devil') 64-bit 2017-12-15 23:52:41 / mkvmerge v15.0.0 ('Duel with the Devil') 64-bit 2017-12-15 23:52:41 / UTC 2017-12-15T23:14:32Z
    FromStats_BitRate                        : 56
    FromStats_Duration                       : 01:37:00.636000000
    FromStats_FrameCount                     : 1324
    FromStats_StreamSize                     : 40925

    Menu
    00:00:00.000                             : :Chapter 1
    00:03:33.130                             : :Chapter 2
    00:08:58.204                             : :Chapter 3
    00:14:48.304                             : :Chapter 4
    00:20:30.604                             : :Chapter 5
    00:26:29.463                             : :Chapter 6
    00:33:44.689                             : :Chapter 7
    00:39:14.018                             : :Chapter 8
    00:45:54.335                             : :Chapter 9
    00:51:56.780                             : :Chapter 10
    00:58:29.381                             : :Chapter 11
    01:05:36.808                             : :Chapter 12
    01:11:57.104                             : :Chapter 13
    01:18:23.699                             : :Chapter 14
    01:23:05.522                             : :Chapter 15
    01:27:29.619                             : :Chapter 16
    01:32:55.361                             : :Chapter 17
    01:37:29.802                             : :Chapter 18

  • Peso: 2.97 GiB

Sinopsis

Drama ambientado en el siglo XVII en Holanda, durante una época donde un solo bulbo del tulipán costaba casi 10 veces más que el sueldo medio. La película nos cuenta la historia de un hombre mayor que se enamora de una joven recién casada mientras le está pintando el retrato que le han encargado. Ambos invertirán en el negocio de los tulipanes con el propósito de ganar un dinero que les sirva para crear un futuro juntos.

Ficha técnica

  • Titulo original: Tulip Fever
  • Fecha de lanzamiento: 13-07-2017 (United Kingdom, United States of America)
  • Director: Justin Chadwick
  • Género: Drama, Romance
  • Puntuación: 0.0 0 votos
  • Duración:
    1 h 44 min

Video trailer de la película

Enlaces de descarga

Rip de Bluray

Descargar Tulip Fever (2017) 1080p Latino




Aportes de DPeliculasHDmega la pass es:dpeliculashdmega.org Aportes de CinemaniaHD la pass es:eatsouthward.com
Guardado en : Drama , Romance

Películas relacionadas

  • A Ghost Story (2017) 1080p Latino

    2017
    A Ghost Story (2017) 1080p Latino

    0.0 1h 27m 2017

    Un hombre recientemente fallecido regresa a su casa como un fantasma vestido con una sábana blanca para...

    Director: David Lowery

    Género: Drama

    Actores: Yasmina Gutierrez

  • Milagros inesperados (1999) Full 1080p Latino

    1999
    Milagros inesperados (1999) Full 1080p Latino

    5.0 3h 9m 1999

    En el sur de los Estados Unidos, en plena Depresión, Paul Edgecomb es un vigilante penitenciario a cargo...

    Director: Susan Malerstein

    Género: Crimen

    Actores: William Sadler

  • La terminal (2004) Full 1080p Latino

    2004
    La terminal (2004) Full 1080p Latino

    5.0 2 h 8 min 2004

    Basado en hechos reales, Viktor Navorski (Tom Hanks) es un inmigrante balcánico que, al estallar la...

    Director: Steven Spielberg

    Género: Comedia

    Actores: Zoe Saldana

  • La invención de Cronos (1993) Full 1080p Latino

    1993
    La invención de Cronos (1993) Full 1080p Latino

    0.0 1 h 32 min 1993

    Cronos es un artefacto creado por un alquimista medieval, en cuyo interior se encuentra instalado un...

    Director: Guillermo del Toro

    Género: Drama

    Actores: Tamara Shanath

Comentarios 0
-->