Tierra de Zombies (2009) [Open Matte] WEB-DL 1080p Latino

782 vistas
1 estrella2 estrellas3 estrellas4 estrellas5 estrellas (1 votos, promedio: 5,00 de 5)
Cargando…

Información de Tierra de Zombies (2009) [Open Matte] WEB-DL 1080p Latino

Datos de la película

  • Calidad: WEBDL
  • Audio: Se especifica abajo de la Sinopsis
  • Subtitulos: Español Latino SRT
  • Resolución: 1920X1080p
  • Formato: MKV
  • Codec: H.264
  • Encoder: Dracarys
  • Mediainfo: Clic para Mostrar Datos Ver
  • Format                                   : Matroska
    Format version                           : Version 4 / Version 2
    File size                                : 5.87 GiB
    Duration                                 : 1 h 27 min
    Overall bit rate mode                    : Variable
    Overall bit rate                         : 9 570 kb/s
    Encoded date                             : UTC 2018-01-31 15:07:51
    Writing application                      : mkvmerge v15.0.0 ('Duel with the Devil') 64-bit
    Writing library                          : libebml v1.3.5 + libmatroska v1.4.5

    Video
    ID                                       : 1
    Format                                   : AVC
    Format/Info                              : Advanced Video Codec
    Format profile                           : [email protected]
    Format settings                          : CABAC / 4 Ref Frames
    Format settings, CABAC                   : Yes
    Format settings, RefFrames               : 4 frames
    Codec ID                                 : V_MPEG4/ISO/AVC
    Duration                                 : 1 h 27 min
    Bit rate mode                            : Variable
    Bit rate                                 : 8 746 kb/s
    Maximum bit rate                         : 15.0 Mb/s
    Width                                    : 1 920 pixels
    Height                                   : 1 080 pixels
    Display aspect ratio                     : 16:9
    Frame rate mode                          : Constant
    Frame rate                               : 23.976 (24000/1001) FPS
    Color space                              : YUV
    Chroma subsampling                       : 4:2:0
    Bit depth                                : 8 bits
    Scan type                                : Progressive
    Bits/(Pixel*Frame)                       : 0.176
    Stream size                              : 5.36 GiB (91%)
    Title                                    : Tierra de Zombies (2009) [Open Matte] WEB-DL 1080p Latino
    Language                                 : English
    Default                                  : Yes
    Forced                                   : No
    Color range                              : Limited
    Color primaries                          : BT.709
    Transfer characteristics                 : BT.709
    Matrix coefficients                      : BT.709

    Audio #1
    ID                                       : 2
    Format                                   : AC-3
    Format/Info                              : Audio Coding 3
    Format settings, Endianness              : Big
    Codec ID                                 : A_AC3
    Duration                                 : 1 h 27 min
    Bit rate mode                            : Constant
    Bit rate                                 : 640 kb/s
    Channel(s)                               : 6 channels
    Channel positions                        : Front: L C R, Side: L R, LFE
    Sampling rate                            : 48.0 kHz
    Frame rate                               : 31.250 FPS (1536 SPF)
    Bit depth                                : 16 bits
    Compression mode                         : Lossy
    Stream size                              : 401 MiB (7%)
    Language                                 : Spanish
    Service kind                             : Complete Main
    Default                                  : Yes
    Forced                                   : No

    Audio #2
    ID                                       : 3
    Format                                   : AC-3
    Format/Info                              : Audio Coding 3
    Mode                                     : Dolby Digital
    Format settings, Endianness              : Big
    Codec ID                                 : A_AC3
    Duration                                 : 1 h 27 min
    Bit rate mode                            : Constant
    Bit rate                                 : 192 kb/s
    Channel(s)                               : 2 channels
    Channel positions                        : Front: L R
    Sampling rate                            : 48.0 kHz
    Frame rate                               : 31.250 FPS (1536 SPF)
    Bit depth                                : 16 bits
    Compression mode                         : Lossy
    Delay relative to video                  : 16 ms
    Stream size                              : 120 MiB (2%)
    Language                                 : English
    Service kind                             : Complete Main
    Default                                  : No
    Forced                                   : No

    Text
    ID                                       : 4
    Format                                   : UTF-8
    Codec ID                                 : S_TEXT/UTF8
    Codec ID/Info                            : UTF-8 Plain Text
    Duration                                 : 1 h 27 min
    Bit rate                                 : 46 b/s
    Count of elements                        : 898
    Stream size                              : 29.6 KiB (0%)
    Language                                 : Spanish
    Default                                  : Yes
    Forced                                   : No

  • Peso: 5.87 GiB

Sinopsis

En un mundo plagado de zombis, Columbus es un gallina, un joven que se encuentra aterrorizado por la situación, pero cuando te juegas el ser comido por los zombies, el miedo puede mantenerte vivo. De hecho su cobardía precisamente le ha permitido que sus sesos aún se mantengan en su cabeza. Entonces un día conoce a Tallahassse, un macarra caza zombies cuya única determinación en su vida es lograr el último Twinkie (dulce americano) en la tierra. Cuando ambos unen fuerzas con Wichita y Little Rock, que también han encontrado una manera original de sobrevivir en ese caos, tendrán que elegir qué es peor: si confiar los unos en los otros para sobrevivir o sucumbir ante los zombies.

 

Audios: Latino AC3 5.1 BluRay  –  Ingles E-AC3 5.1 Amazon

Audio ingles Corregido

Ficha técnica

  • Titulo original: Zombieland
  • Fecha de lanzamiento: 07-10-2009 (United States of America)
  • Director: Ruben Fleischer
  • Género: Comedia, Terror
  • Puntuación: 5.0 1 votos
  • Duración:
    1 h 27 min

Video trailer de la película

Enlaces de descarga

Rip de Bluray

Descargar Tierra de Zombies (2009) [Open Matte] WEB-DL 1080p Latino




Aportes de DPeliculasHDmega la pass es:dpeliculashdmega.org Aportes de CinemaniaHD la pass es:eatsouthward.com
Guardado en : Comedia , Terror

Películas relacionadas

  • Dude (2018) NF 1080p Latino

    2018
    Dude (2018) NF 1080p Latino

    5.0 1h 30m 2018

    Cuatro mejores amigas se tienen que enfrentar a su nueva vida. Las dos últimas semanas de instituto...

    Director: Olivia Milch

    Género: Comedia

    Actores: Sydney Lucas

  • Gun shy (2017) 1080p Latino

    2017
    Gun shy (2017) 1080p Latino

    0.0 1h 31m 2017

    Basada en la novela homónima de Mark Haskell Smith. Turk Henry es una antigua estrella de rock con sobrepeso...

    Director: Simon West

    Género: Acción

    Actores: Sebastián Apiolaza

  • Deep Blue Sea 2 (2018) 1080p Latino

    2018
    Deep Blue Sea 2 (2018) 1080p Latino

    5.0 1h 34m 2018

    La Doctora Misty Calhoun, conservacionista de tiburones, es invitada para asesorar un proyecto secreto...

    Director: Darin Scott

    Género: Acción

    Actores: Rob Mayes

  • Se dice de mí (2010) Full 1080p Latino

    2010
    Se dice de mí (2010) Full 1080p Latino

    5.0 1 h 32 min 2010

    El guión, obra del dramaturgo Bert V. Royal, es una versión moderna y en clave estudiantil de “La...

    Director: Will Sandoval

    Género: Comedia

    Actores: Zack Kennedy

Comentarios 14
  • JOHNSON2018 - 03 febrero, 2018

    quien me puede decir que si en verdad esta bueno el audio ingles yo lo baje y me sale el audio de comentario

    • Dracarys - 03 febrero, 2018

      La pelicula esta en otro paste con audio ingles ya arreglado

      • JOHNSON2018 - 03 febrero, 2018

        gracias muy amable

  • JOHNSON2018 - 03 febrero, 2018

    disculpe pero lo baje y me sale wel ingles de comentario tienes el audio ingles aparte

    • Dracarys - 03 febrero, 2018

      Ya eta Corregido, en los pastes dice…

  • JOHNSON2018 - 02 febrero, 2018

    traten de ripear con calma las movie para que no vengan con errores gracias…

    • Dracarys - 03 febrero, 2018

      Es un WEB-DL no se ripea

  • JOHNSON2018 - 02 febrero, 2018

    puedes porfavor corregirlo..o mandame el audio ingles..

    • Dracarys - 03 febrero, 2018

      Arreglado

  • JOHNSON2018 - 02 febrero, 2018

    como es eso me sale comentario donde es que esta corregido no entiendo?

    • Dracarys - 03 febrero, 2018

      En el paste.

  • #Cinefilo - 31 enero, 2018

    Muchassss Graciasssssss 🙂

  • Daniel - 31 enero, 2018

    Siempre con los mejores aportes!! Excelente pagina. Alguna vez subiran las peliculas de “El cubo (1997) ” y sus precesoras?? Saludos!!

  • Tekorei - 31 enero, 2018

    GRACIAS!!!!!

-->