Thor un mundo oscuro (2013) Full 1080p Latino

799 vistas
1 estrella2 estrellas3 estrellas4 estrellas5 estrellas (1 votos, promedio: 5,00 de 5)
Cargando…

Información de Thor un mundo oscuro (2013) Full 1080p Latino

Datos de la película

  • Calidad: Full 1080p
  • Audio: Español Latino AC3 5.1 BLURAY - Ingles DTS 5.1 BLURAY
  • Subtitulos: Español Latino PGS - Ingles PGS
  • Resolución: 1920x1080p
  • Formato: MKV
  • Codec: H.264
  • Encoder: Dracarys
  • Mediainfo: Clic para Mostrar Datos Ver
  • Format                                   : Matroska
    Format version                           : Version 4 / Version 2
    File size                                : 4.35 GiB
    Duration                                 : 1 h 52 min
    Overall bit rate                         : 5 561 kb/s
    Movie name                               : CinemaniaHDD.com
    Encoded date                             : UTC 2018-04-12 19:57:01 / UTC 2018-04-11T18:24:25Z
    Writing application                      : mkvmerge v15.0.0 ('Duel with the Devil') 64-bit
    Writing library                          : libebml v1.3.5 + libmatroska v1.4.5 / Lavf57.7.2

    Video
    ID                                       : 1
    Format                                   : AVC
    Format/Info                              : Advanced Video Codec
    Format profile                           : [email protected]
    Format settings                          : CABAC / 4 Ref Frames
    Format settings, CABAC                   : Yes
    Format settings, RefFrames               : 4 frames
    Codec ID                                 : V_MPEG4/ISO/AVC
    Duration                                 : 1 h 52 min
    Bit rate                                 : 3 301 kb/s
    Width                                    : 1 920 pixels
    Height                                   : 1 080 pixels
    Display aspect ratio                     : 16:9
    Frame rate mode                          : Constant
    Frame rate                               : 23.976 (24000/1001) FPS
    Color space                              : YUV
    Chroma subsampling                       : 4:2:0
    Bit depth                                : 8 bits
    Scan type                                : Progressive
    Bits/(Pixel*Frame)                       : 0.066
    Stream size                              : 2.58 GiB (59%)
    Title                                    : Thor un mundo oscuro (2013) Full 1080p Latino
    Writing library                          : x264 core 148 r2708 86b7198
    Encoding settings                        : cabac=1 / ref=4 / deblock=1:0:0 / analyse=0x3:0x133 / me=esa / subme=9 / psy=1 / psy_rd=1.00:0.00 / mixed_ref=1 / me_range=16 / chroma_me=1 / trellis=2 / 8x8dct=1 / cqm=0 / deadzone=21,11 / fast_pskip=1 / chroma_qp_offset=-2 / threads=34 / lookahead_threads=2 / sliced_threads=0 / nr=0 / decimate=1 / interlaced=0 / bluray_compat=0 / constrained_intra=0 / bframes=3 / b_pyramid=2 / b_adapt=2 / b_bias=0 / direct=3 / weightb=1 / open_gop=0 / weightp=2 / keyint=240 / keyint_min=24 / scenecut=40 / intra_refresh=0 / rc_lookahead=60 / rc=crf / mbtree=1 / crf=20.0 / qcomp=0.60 / qpmin=0 / qpmax=69 / qpstep=4 / vbv_maxrate=62500 / vbv_bufsize=78125 / crf_max=0.0 / nal_hrd=none / filler=0 / ip_ratio=1.40 / aq=1:1.00
    Language                                 : English
    Default                                  : Yes
    Forced                                   : No
    Color range                              : Limited
    Color primaries                          : BT.709
    Transfer characteristics                 : BT.709
    Matrix coefficients                      : BT.709
    Statistics Tags Issue                    : mkvmerge v15.0.0 ('Duel with the Devil') 64-bit 2018-04-12 19:57:01 / mkvmerge v15.0.0 ('Duel with the Devil') 64-bit 2018-04-12 19:57:01 / UTC 2018-04-11T18:24:25Z
    FromStats_BitRate                        : 3392745
    FromStats_Duration                       : 01:52:05.177000000
    FromStats_FrameCount                     : 161243
    FromStats_StreamSize                     : 2852101951

    Audio #1
    ID                                       : 2
    Format                                   : AC-3
    Format/Info                              : Audio Coding 3
    Format settings, Endianness              : Big
    Codec ID                                 : A_AC3
    Duration                                 : 1 h 52 min
    Bit rate mode                            : Constant
    Bit rate                                 : 640 kb/s
    Channel(s)                               : 6 channels
    Channel positions                        : Front: L C R, Side: L R, LFE
    Sampling rate                            : 48.0 kHz
    Frame rate                               : 31.250 FPS (1536 SPF)
    Bit depth                                : 16 bits
    Compression mode                         : Lossy
    Delay relative to video                  : 1 s 800 ms
    Stream size                              : 513 MiB (12%)
    Language                                 : Spanish
    Service kind                             : Complete Main
    Default                                  : Yes
    Forced                                   : No
    Statistics Tags Issue                    : mkvmerge v15.0.0 ('Duel with the Devil') 64-bit 2018-04-12 19:57:01 / mkvmerge v15.0.0 ('Duel with the Devil') 64-bit 2018-04-12 19:57:01 / UTC 2018-04-11T18:24:25Z
    FromStats_BitRate                        : 640000
    FromStats_Duration                       : 01:52:03.328000000
    FromStats_FrameCount                     : 210104
    FromStats_StreamSize                     : 537866240

    Audio #2
    ID                                       : 3
    Format                                   : DTS
    Format/Info                              : Digital Theater Systems
    Mode                                     : 16
    Format settings, Endianness              : Big
    Codec ID                                 : A_DTS
    Duration                                 : 1 h 52 min
    Bit rate mode                            : Constant
    Bit rate                                 : 1 509 kb/s
    Channel(s)                               : 6 channels
    Channel positions                        : Front: L C R, Side: L R, LFE
    Sampling rate                            : 48.0 kHz
    Frame rate                               : 93.750 FPS (512 SPF)
    Bit depth                                : 24 bits
    Compression mode                         : Lossy
    Delay relative to video                  : 1 s 83 ms
    Stream size                              : 1.18 GiB (27%)
    Language                                 : English
    Default                                  : No
    Forced                                   : No
    Statistics Tags Issue                    : mkvmerge v15.0.0 ('Duel with the Devil') 64-bit 2018-04-12 19:57:01 / mkvmerge v15.0.0 ('Duel with the Devil') 64-bit 2018-04-12 19:57:01 / UTC 2018-04-11T18:24:25Z
    FromStats_BitRate                        : 1508999
    FromStats_Duration                       : 01:52:04.139000000
    FromStats_FrameCount                     : 630388
    FromStats_StreamSize                     : 1268340656

    Text #1
    ID                                       : 4
    Format                                   : PGS
    Muxing mode                              : zlib
    Codec ID                                 : S_HDMV/PGS
    Codec ID/Info                            : Picture based subtitle format used on BDs/HD-DVDs
    Title                                    : Forzados Latino
    Language                                 : Spanish
    Default                                  : Yes
    Forced                                   : Yes
    Statistics Tags Issue                    : mkvmerge v15.0.0 ('Duel with the Devil') 64-bit 2018-04-12 19:57:01 / mkvmerge v15.0.0 ('Duel with the Devil') 64-bit 2018-04-12 19:57:01 / UTC 2018-04-11T18:24:25Z
    FromStats_BitRate                        : 335
    FromStats_Duration                       : 01:50:48.517000000
    FromStats_FrameCount                     : 68
    FromStats_StreamSize                     : 278464

    Text #2
    ID                                       : 5
    Format                                   : PGS
    Muxing mode                              : zlib
    Codec ID                                 : S_HDMV/PGS
    Codec ID/Info                            : Picture based subtitle format used on BDs/HD-DVDs
    Title                                    : Completos Latino
    Language                                 : Spanish
    Default                                  : No
    Forced                                   : No
    Statistics Tags Issue                    : mkvmerge v15.0.0 ('Duel with the Devil') 64-bit 2018-04-12 19:57:01 / mkvmerge v15.0.0 ('Duel with the Devil') 64-bit 2018-04-12 19:57:01 / UTC 2018-04-11T18:24:25Z
    FromStats_BitRate                        : 24355
    FromStats_Duration                       : 01:51:23.385000000
    FromStats_FrameCount                     : 2168
    FromStats_StreamSize                     : 20347062

    Text #3
    ID                                       : 6
    Format                                   : PGS
    Muxing mode                              : zlib
    Codec ID                                 : S_HDMV/PGS
    Codec ID/Info                            : Picture based subtitle format used on BDs/HD-DVDs
    Title                                    : Ingles
    Language                                 : English
    Default                                  : No
    Forced                                   : No
    Statistics Tags Issue                    : mkvmerge v15.0.0 ('Duel with the Devil') 64-bit 2018-04-12 19:57:01 / mkvmerge v15.0.0 ('Duel with the Devil') 64-bit 2018-04-12 19:57:01 / UTC 2018-04-11T18:24:25Z
    FromStats_BitRate                        : 29202
    FromStats_Duration                       : 01:51:12.040000000
    FromStats_FrameCount                     : 2762
    FromStats_StreamSize                     : 24354843

    Menu
    00:00:00.000                             : :Chapter 1
    00:06:15.584                             : :Chapter 2
    00:13:07.453                             : :Chapter 3
    00:18:42.913                             : :Chapter 4
    00:24:58.747                             : :Chapter 5
    00:29:09.581                             : :Chapter 6
    00:41:35.284                             : :Chapter 7
    00:49:42.146                             : :Chapter 8
    00:55:58.063                             : :Chapter 9
    01:00:10.816                             : :Chapter 10
    01:08:14.591                             : :Chapter 11
    01:12:41.816                             : :Chapter 12
    01:21:36.392                             : :Chapter 13
    01:26:24.012                             : :Chapter 14
    01:34:00.718                             : :Chapter 15
    01:38:33.574                             : :Chapter 16
    01:41:51.314                             : :Chapter 17

  • Peso: 4.35 GiB

Sinopsis

Thor lucha por restablecer el orden en el cosmos, pero una antigua raza liderada por el vengativo Malekith regresa con el propósito de volver a sumir el universo en la oscuridad. Se trata de un villano con el que ni siquiera Odín y Asgard se atreven a enfrentarse; por esa razón, Thor tendrá que emprender un viaje muy peligroso, durante el cual se reunirá con Jane Foster y la obligará a sacrificarlo todo para salvar el mundo.

Ficha técnica

Video trailer de la película

Enlaces de descarga

Rip de Bluray

Descargar Thor un mundo oscuro (2013) Full 1080p Latino




Aportes de DPeliculasHDmega la pass es:dpeliculashdmega.org Aportes de CinemaniaHD la pass es:eatsouthward.com

Películas relacionadas

  • Batman Ninja (2018) WEB-DL 1080p Latino

    2018
    Batman Ninja (2018) WEB-DL 1080p Latino

    5.0 1h 25m 2018

    Batman, junto a sus aliados y enemigos, se ve transportado desde la moderna Gotham hasta el Japón feudal....

    Director: Junpei Mizusaki

    Género: Acción

    Actores: Yuuki Kaji

  • Niños del hombre (2006) Full 1080p Latino

    2006
    Niños del hombre (2006) Full 1080p Latino

    0.0 1 h 49 min 2006

    Año 2027: el ser humano está al borde de la extinción: los hombres han perdido la capacidad de procrear...

    Director: Terry Needham

    Género: Acción

    Actores: Yolanda Vazquez

  • Winchester (2018) 1080p Latino

    2018
    Winchester (2018) 1080p Latino

    0.0 1h 39m 2018

    A finales del siglo XIX, después de la trágica muerte de su marido y su hijo, Sarah construye una casa-fortaleza...

    Director: Peter Spierig

    Género: Fantasía

    Actores: Xavier Gouault

  • Unlocked (2017) 1080p Latino

    2017
    Unlocked (2017) 1080p Latino

    3.0 1h 43m 2017

    Gira en torno a una agente de la CIA, especializada en interrogatorios, que es engañada por un sospechoso,...

    Director: Vera Homolacova

    Género: Acción

    Actores: Tosin Cole

Comentarios 1
  • ocpgaiden - 13 abril, 2018

    muchisimas gracias por la movie

-->