The Walking Dead (2016) Temporada 7 1080p Latino

1.931 vistas
1 estrella2 estrellas3 estrellas4 estrellas5 estrellas (Ninguna valoración todavía)
Cargando…

Información de The Walking Dead (2016) Temporada 7 1080p Latino

Datos de la película

  • Calidad: 1080p
  • Audio: Español Latino AC3 2.0 BLURAY - Ingles AC3 5.1 BLURAY
  • Subtitulos: Español Latino PGS
  • Resolución: 1920x1080p
  • Formato: MKV
  • Codec: H.264
  • Encoder: Dpelis
  • Mediainfo: Clic para Mostrar Datos Ver
  • The Walking Dead S07e01 Full 1080p Latino-1.mkv
    Format                      : Matroska
    Format version              : Version 4 / Version 2
    File size                   : 1.39 GiB
    Duration                    : 46 min 6 s
    Overall bit rate            : 4 329 kb/s
    Movie name                  : DPeliculasHDMega.ORG
    Encoded date                : UTC 2017-09-03T00:49:32Z
    Writing application         : HandBrake 1.0.7 2017040900
    Writing library             : Lavf57.7.2

    Video
    ID                          : 1
    Format                      : AVC
    Format/Info                 : Advanced Video Codec
    Format profile              : [email protected]
    Format settings, CABAC      : Yes
    Format settings, ReFrames   : 4 frames
    Codec ID                    : V_MPEG4/ISO/AVC
    Duration                    : 46 min 6 s
    Bit rate                    : 3 500 kb/s
    Width                       : 1 920 pixels
    Height                      : 1 080 pixels
    Display aspect ratio        : 16:9
    Frame rate mode             : Constant
    Frame rate                  : 29.970 (30000/1001) FPS
    Color space                 : YUV
    Chroma subsampling          : 4:2:0
    Bit depth                   : 8 bits
    Scan type                   : Progressive
    Bits/(Pixel*Frame)          : 0.056
    Stream size                 : 1.10 GiB (79%)
    Writing library             : x264 core 148 r2708 86b7198
    Encoding settings           : cabac=1 / ref=3 / deblock=1:0:0 / analyse=0x3:0x113 / me=hex / subme=7 / psy=1 / psy_rd=1.00:0.00 / mixed_ref=1 / me_range=16 / chroma_me=1 / trellis=1 / 8x8dct=1 / cqm=0 / deadzone=21,11 / fast_pskip=1 / chroma_qp_offset=-2 / threads=34 / lookahead_threads=5 / sliced_threads=0 / nr=0 / decimate=1 / interlaced=0 / bluray_compat=0 / constrained_intra=0 / bframes=3 / b_pyramid=2 / b_adapt=1 / b_bias=0 / direct=1 / weightb=1 / open_gop=0 / weightp=2 / keyint=300 / keyint_min=30 / scenecut=40 / intra_refresh=0 / rc_lookahead=40 / rc=abr / mbtree=1 / bitrate=3500 / ratetol=1.0 / qcomp=0.60 / qpmin=0 / qpmax=69 / qpstep=4 / vbv_maxrate=62500 / vbv_bufsize=78125 / nal_hrd=none / filler=0 / ip_ratio=1.40 / aq=1:1.00
    Default                     : Yes
    Forced                      : No
    Color range                 : Limited
    Color primaries             : BT.709
    Transfer characteristics    : BT.709
    Matrix coefficients         : BT.709

    Audio #1
    ID                          : 2
    Format                      : AC-3
    Format/Info                 : Audio Coding 3
    Format settings, Endianness : Big
    Codec ID                    : A_AC3
    Duration                    : 46 min 6 s
    Bit rate mode               : Constant
    Bit rate                    : 384 kb/s
    Channel(s)                  : 2 channels
    Channel positions           : Front: L R
    Sampling rate               : 48.0 kHz
    Frame rate                  : 31.250 FPS (1536 spf)
    Bit depth                   : 16 bits
    Compression mode            : Lossy
    Stream size                 : 127 MiB (9%)
    Title                       : Stereo
    Language                    : Spanish
    Service kind                : Complete Main
    Default                     : Yes
    Forced                      : No

    Audio #2
    ID                          : 3
    Format                      : AC-3
    Format/Info                 : Audio Coding 3
    Format settings, Endianness : Big
    Codec ID                    : A_AC3
    Duration                    : 46 min 6 s
    Bit rate mode               : Constant
    Bit rate                    : 448 kb/s
    Channel(s)                  : 6 channels
    Channel positions           : Front: L C R, Side: L R, LFE
    Sampling rate               : 48.0 kHz
    Frame rate                  : 31.250 FPS (1536 spf)
    Bit depth                   : 16 bits
    Compression mode            : Lossy
    Stream size                 : 148 MiB (10%)
    Title                       : Surround
    Language                    : English
    Service kind                : Complete Main
    Default                     : No
    Forced                      : No

    Text
    ID                          : 4
    Format                      : PGS
    Codec ID                    : S_HDMV/PGS
    Codec ID/Info               : Picture based subtitle format used on BDs/HD-DVDs
    Language                    : Spanish
    Default                     : No
    Forced                      : No

    Menu
    00:00:00.000                : :Chapter 1
    00:09:59.365                : :Chapter 2
    00:19:59.799                : :Chapter 3
    00:29:59.064                : :Chapter 4

  • Peso: 1.45 GB C/U

Sinopsis

The Walking Dead (2016) 1080p Latino, Rick y sus compañeros acabaron la temporada anterior de rodillas ante Negan y su grupo. Lo que haga este nuevo personaje marcará a los que sobrevivan para siempre.

Ficha técnica

  • Titulo original: The Walking Dead
  • Fecha de lanzamiento: 23-10-2016
  • Director: Frank Darabont
  • Género: Acción, Series
  • Puntuación: 0.0 0 votos
  • Duración:
    0h 45m

Video trailer de la película

Enlaces de descarga

Rip de Bluray

Descargar The Walking Dead (2016) Temporada 7 1080p Latino




Aportes de DPeliculasHDmega la pass es:dpeliculashdmega.org Aportes de CinemaniaHD la pass es:eatsouthward.com
Guardado en : Acción , Series

Películas relacionadas

  • Ash vs. Evil Dead (2017) Temporada 3 WEBDL Latino

    2015
    Ash vs. Evil Dead (2017) Temporada 3 WEBDL Latino

    5.0 0h 43m 2015

    Esta temporada 3 seguirá, por tanto, contando con la participación de Lucy Lawless en el papel de la...

    Director: Sam Raimi

    Género: Acción

    Actores: Ray Santiago

  • El caza recompensas (2010) Full 1080p Latino

    2010
    El caza recompensas (2010) Full 1080p Latino

    5.0 1 h 50 min 2010

    Milo Boyd (Gerard Butler) es un cazarrecompensas que está viviendo una mala racha, cuando le asignan...

    Director: Andy Tennant

    Género: Acción

    Actores: Siobhan Fallon

  • The Debt Collector (2018) 1080p latino

    2018
    The Debt Collector (2018) 1080p latino

    5.0 0h 0m 2018

    Un artista marcial, recien graduado (Adkins) consigue un trabajo como cobrador de deudas para la mafia....

    Director: Jesse V. Johnson

    Género: Acción

    Actores: Tony Todd

Comentarios 9
  • millerjose123 - 29 diciembre, 2017

    Realmente es audio español latino es 5.1? ya que en la Mediainfo dice 2 canales

    • dpelis - 30 diciembre, 2017

      un error, es 2,0

  • Angel - 23 octubre, 2017

    Estimado el capitulo 11 esta solo en latino, no trae el audio en ingles

    • dpelis - 24 octubre, 2017

      bueno vere como los agrego, saludos

  • rodigolofonte - 23 septiembre, 2017

    recien me fije q son links de 3 gb, esperaba q fueran mas amigables como de 1.5 gb o 2 gb

    • dpelis - 23 septiembre, 2017

      entre mas link mas acortadores

      • rodigolofonte - 25 septiembre, 2017

        los acotadores y la publicidad no son una molestia, pero ni modo a ver como le hago para descargarla.
        Se me olvidaba darte las gracias y espero puedas subir stranger things q no la encontré en la web.

  • rodigolofonte - 23 septiembre, 2017

    anq el post no menciona la temporda, supongo q es la 7 por el medianfo.

    • dpelis - 24 septiembre, 2017

      si la 7 estimado

-->