The Bounce Back (2016) 1080p WEB-DL Latino

653 vistas
1 estrella2 estrellas3 estrellas4 estrellas5 estrellas (Ninguna valoración todavía)
Cargando…

Información de The Bounce Back (2016) 1080p WEB-DL Latino

Datos de la película

  • Calidad: WEBDL
  • Audio: Se especifica abajo de la Sinopsis
  • Subtitulos: No
  • Resolución: 1916x1076p
  • Formato: MKV
  • Codec: H.264
  • Encoder: Dpelis
  • Mediainfo: Clic para Mostrar Datos Ver
  • Video
    ID                                       : 1
    Format                                   : AVC
    Format/Info                              : Advanced Video Codec
    Format profile                           : [email protected]
    Format settings, CABAC                   : Yes
    Format settings, RefFrames               : 4 frames
    Codec ID                                 : V_MPEG4/ISO/AVC
    Duration                                 : 1 h 43 min
    Bit rate                                 : 5 229 kb/s
    Width                                    : 1 916 pixels
    Height                                   : 1 076 pixels
    Display aspect ratio                     : 16:9
    Frame rate mode                          : Constant
    Frame rate                               : 23.976 FPS
    Color space                              : YUV
    Chroma subsampling                       : 4:2:0
    Bit depth                                : 8 bits
    Scan type                                : Progressive
    Bits/(Pixel*Frame)                       : 0.106
    Stream size                              : 3.79 GiB (90%)
    Language                                 : English
    Default                                  : Yes
    Forced                                   : No
    Color range                              : Limited
    Color primaries                          : BT.709
    Transfer characteristics                 : BT.709
    Matrix coefficients                      : BT.709

    Audio #1
    ID                                       : 2
    Format                                   : AC-3
    Format/Info                              : Audio Coding 3
    Format settings, Endianness              : Big
    Codec ID                                 : A_AC3
    Duration                                 : 1 h 44 min
    Bit rate mode                            : Constant
    Bit rate                                 : 192 kb/s
    Channel(s)                               : 2 channels
    Channel positions                        : Front: L R
    Sampling rate                            : 48.0 kHz
    Frame rate                               : 31.250 FPS (1536 SPF)
    Bit depth                                : 16 bits
    Compression mode                         : Lossy
    Stream size                              : 143 MiB (3%)
    Language                                 : Spanish
    Service kind                             : Complete Main
    Default                                  : No
    Forced                                   : No

    Audio #2
    ID                                       : 3
    Format                                   : AC-3
    Format/Info                              : Audio Coding 3
    Format settings, Endianness              : Big
    Codec ID                                 : A_AC3
    Duration                                 : 1 h 43 min
    Bit rate mode                            : Constant
    Bit rate                                 : 384 kb/s
    Channel(s)                               : 6 channels
    Channel positions                        : Front: L C R, Side: L R, LFE
    Sampling rate                            : 48.0 kHz
    Frame rate                               : 31.250 FPS (1536 SPF)
    Bit depth                                : 16 bits
    Compression mode                         : Lossy
    Stream size                              : 285 MiB (7%)
    Language                                 : English
    Service kind                             : Complete Main
    Default                                  : Yes
    Forced                                   : No

    Menu
    00:00:00.000                             : en:Chapter 01
    00:03:12.484                             : en:Chapter 02
    00:05:25.950                             : en:Chapter 03
    00:08:10.072                             : en:Chapter 04
    00:11:42.700                             : en:Chapter 05
    00:14:32.036                             : en:Chapter 06
    00:17:23.164                             : en:Chapter 07
    00:23:00.209                             : en:Chapter 08
    00:25:50.504                             : en:Chapter 09
    00:28:35.961                             : en:Chapter 10
    00:33:45.937                             : en:Chapter 11
    00:40:04.940                             : en:Chapter 12
    00:44:00.967                             : en:Chapter 13
    00:46:38.206                             : en:Chapter 14
    00:49:51.899                             : en:Chapter 15
    00:56:02.310                             : en:Chapter 16
    01:01:18.375                             : en:Chapter 17
    01:03:08.193                             : en:Chapter 18
    01:06:09.207                             : en:Chapter 19
    01:07:47.221                             : en:Chapter 20
    01:13:07.957                             : en:Chapter 21
    01:14:57.316                             : en:Chapter 22
    01:17:24.337                             : en:Chapter 23
    01:20:56.674                             : en:Chapter 24
    01:25:13.096                             : en:Chapter 25
    01:33:08.487                             : en:Chapter 26
    01:36:38.029                             : en:Chapter 27
    01:38:16.876                             : en:Chapter 28

  • Peso: 4,21 GB

Sinopsis

Padre, autor y experto en relaciones, Matthew Taylor está en una gira de torbellinos de libros promocionando su nuevo best seller, The Bounce Back. Lo sabe todo hasta que conoce a la acerba Kristin Peralta, una terapeuta de circuito de talk shows que está convencida de que no es más que un charlatán. La vida de Matthew se revuelve cuando inadvertidamente se enamora de Kristin y tiene que afrontar la dolorosa verdad de su relación anterior.

Nota: Latino AC3 2.0 (Capturado) – Ingles AC3 5.1 (Itunes)

Ficha técnica

  • Titulo original: The Bounce Back
  • Fecha de lanzamiento: 26-02-2016 (United States of America)
  • Director: Youssef Delara
  • Género: Romance
  • Puntuación: 0.0 0 votos
  • Duración:
    0h 0m

Video trailer de la película

Enlaces de descarga

Rip de Bluray

Descargar The Bounce Back (2016) 1080p WEB-DL Latino




Aportes de DPeliculasHDmega la pass es:dpeliculashdmega.org Aportes de CinemaniaHD la pass es:eatsouthward.com
Guardado en : Romance

Películas relacionadas

  • Ahora los padres son ellos (2010) Full 1080p Latino

    2010
    Ahora los padres son ellos (2010) Full 1080p Latino

    5.0 1h 37m 2010

    Han tenido que pasar diez años, dos pequeños Fockers con su mujer, Pam (Polo) e incontables obstáculos...

    Director: Paul Weitz

    Género: Comedia

    Actores: Teri Polo

  • La Familia de Mi novio (2004) Full 1080p Latino

    2004
    La Familia de Mi novio (2004) Full 1080p Latino

    5.0 1h 55m 2004

    Cuatro años después de que el enfermero Greg (alias Gaylord) Focker, durante un fin de semana en casa...

    Director: Wilma Garscadden-Gahret

    Género: Comedia

    Actores: Wayne Thomas Yorke

  • La Familia de Mi novia (2000) Full 1080p Latino

    2000
    La Familia de Mi novia (2000) Full 1080p Latino

    5.0 1 h 47 min 2000

    Greg Focker (Ben Stiller) es un enfermero algo patoso que, tras anunciar su compromiso con novia Pam...

    Director: Richard Cowan

    Género: Comedia

    Actores: William Severs

  • Loco Por Mary (1998) Full 1080p Latino

    1998
    Loco Por Mary (1998) Full 1080p Latino

    5.0 2 h 10 min 1998

    Ted Strohehmann ha vivido angustiado durante 14 años de su vida. La razón de su desgracia no es otra...

    Director: Steve Gehrke

    Género: Comedia

    Actores: Willie Garson

Comentarios 0
-->