Sunshine (2007) Full 1080p Latino

1.194 vistas
1 estrella2 estrellas3 estrellas4 estrellas5 estrellas (2 votos, promedio: 4,50 de 5)
Cargando…

Información de Sunshine (2007) Full 1080p Latino

Datos de la película

  • Calidad: Full 1080p
  • Audio: Español Latino AC3 5.1 BLURAY - Ingles DTS 5.1 BLURAY
  • Subtitulos: Español Latino PGS - Ingles PGS
  • Resolución: 1920X1080p
  • Formato: MKV
  • Codec: H.264
  • Encoder: Dracarys
  • Mediainfo: Clic para Mostrar Datos Ver
  • Format                                   : Matroska
    Format version                           : Version 4 / Version 2
    File size                                : 6.53 GiB
    Duration                                 : 1 h 47 min
    Overall bit rate                         : 8 695 kb/s
    Movie name                               : CinemaniaHDD.com
    Encoded date                             : UTC 2017-12-26 22:45:46 / UTC 2017-12-17T22:51:19Z
    Writing application                      : mkvmerge v15.0.0 ('Duel with the Devil') 64-bit
    Writing library                          : libebml v1.3.5 + libmatroska v1.4.5 / Lavf57.7.2

    Video
    ID                                       : 1
    Format                                   : AVC
    Format/Info                              : Advanced Video Codec
    Format profile                           : [email protected]
    Format settings                          : CABAC / 4 Ref Frames
    Format settings, CABAC                   : Yes
    Format settings, RefFrames               : 4 frames
    Codec ID                                 : V_MPEG4/ISO/AVC
    Duration                                 : 1 h 47 min
    Bit rate                                 : 6 565 kb/s
    Width                                    : 1 920 pixels
    Height                                   : 1 080 pixels
    Display aspect ratio                     : 16:9
    Frame rate mode                          : Constant
    Frame rate                               : 23.976 (24000/1001) FPS
    Color space                              : YUV
    Chroma subsampling                       : 4:2:0
    Bit depth                                : 8 bits
    Scan type                                : Progressive
    Bits/(Pixel*Frame)                       : 0.132
    Stream size                              : 4.93 GiB (76%)
    Title                                    : Sunshine (2007) Full 1080p Latino
    Writing library                          : x264 core 148 r2708 86b7198
    Encoding settings                        : cabac=1 / ref=4 / deblock=1:0:0 / analyse=0x3:0x133 / me=esa / subme=10 / psy=1 / psy_rd=1.00:0.00 / mixed_ref=1 / me_range=24 / chroma_me=1 / trellis=2 / 8x8dct=1 / cqm=0 / deadzone=21,11 / fast_pskip=1 / chroma_qp_offset=-2 / threads=34 / lookahead_threads=5 / sliced_threads=0 / nr=0 / decimate=1 / interlaced=0 / bluray_compat=0 / constrained_intra=0 / bframes=8 / b_pyramid=2 / b_adapt=2 / b_bias=0 / direct=3 / weightb=1 / open_gop=0 / weightp=2 / keyint=240 / keyint_min=24 / scenecut=40 / intra_refresh=0 / rc_lookahead=60 / rc=crf / mbtree=1 / crf=20.0 / qcomp=0.60 / qpmin=0 / qpmax=69 / qpstep=4 / vbv_maxrate=62500 / vbv_bufsize=78125 / crf_max=0.0 / nal_hrd=none / filler=0 / ip_ratio=1.40 / aq=1:1.00
    Language                                 : English
    Default                                  : Yes
    Forced                                   : No
    Color range                              : Limited
    Color primaries                          : BT.709
    Transfer characteristics                 : BT.709
    Matrix coefficients                      : BT.709
    Statistics Tags Issue                    : mkvmerge v15.0.0 ('Duel with the Devil') 64-bit 2017-12-26 22:45:46 / mkvmerge v15.0.0 ('Duel with the Devil') 64-bit 2017-12-26 22:45:46 / UTC 2017-12-17T22:51:19Z
    FromStats_BitRate                        : 6716276
    FromStats_Duration                       : 01:47:28.484000000
    FromStats_FrameCount                     : 154609
    FromStats_StreamSize                     : 5413725480

    Audio #1
    ID                                       : 2
    Format                                   : AC-3
    Format/Info                              : Audio Coding 3
    Format settings, Endianness              : Big
    Codec ID                                 : A_AC3
    Duration                                 : 1 h 47 min
    Bit rate mode                            : Constant
    Bit rate                                 : 448 kb/s
    Channel(s)                               : 6 channels
    Channel positions                        : Front: L C R, Side: L R, LFE
    Sampling rate                            : 48.0 kHz
    Frame rate                               : 31.250 FPS (1536 SPF)
    Bit depth                                : 16 bits
    Compression mode                         : Lossy
    Stream size                              : 344 MiB (5%)
    Language                                 : Spanish
    Service kind                             : Complete Main
    Default                                  : Yes
    Forced                                   : No
    Statistics Tags Issue                    : mkvmerge v15.0.0 ('Duel with the Devil') 64-bit 2017-12-26 22:45:46 / mkvmerge v15.0.0 ('Duel with the Devil') 64-bit 2017-12-26 22:45:46 / UTC 2017-12-17T22:51:19Z
    FromStats_BitRate                        : 448000
    FromStats_Duration                       : 01:47:28.512000000
    FromStats_FrameCount                     : 201516
    FromStats_StreamSize                     : 361116672

    Audio #2
    ID                                       : 3
    Format                                   : DTS
    Format/Info                              : Digital Theater Systems
    Mode                                     : 16
    Format settings, Endianness              : Big
    Codec ID                                 : A_DTS
    Duration                                 : 1 h 47 min
    Bit rate mode                            : Constant
    Bit rate                                 : 1 509 kb/s
    Channel(s)                               : 6 channels
    Channel positions                        : Front: L C R, Side: L R, LFE
    Sampling rate                            : 48.0 kHz
    Frame rate                               : 93.750 FPS (512 SPF)
    Bit depth                                : 24 bits
    Compression mode                         : Lossy
    Stream size                              : 1.13 GiB (17%)
    Language                                 : English
    Default                                  : No
    Forced                                   : No
    Statistics Tags Issue                    : mkvmerge v15.0.0 ('Duel with the Devil') 64-bit 2017-12-26 22:45:46 / mkvmerge v15.0.0 ('Duel with the Devil') 64-bit 2017-12-26 22:45:46 / UTC 2017-12-17T22:51:19Z
    FromStats_BitRate                        : 1509000
    FromStats_Duration                       : 01:47:28.480000000
    FromStats_FrameCount                     : 604545
    FromStats_StreamSize                     : 1216344540

    Text #1
    ID                                       : 4
    Format                                   : PGS
    Muxing mode                              : zlib
    Codec ID                                 : S_HDMV/PGS
    Codec ID/Info                            : Picture based subtitle format used on BDs/HD-DVDs
    Language                                 : English
    Default                                  : No
    Forced                                   : No
    Statistics Tags Issue                    : mkvmerge v15.0.0 ('Duel with the Devil') 64-bit 2017-12-26 22:45:46 / mkvmerge v15.0.0 ('Duel with the Devil') 64-bit 2017-12-26 22:45:46 / UTC 2017-12-17T22:51:19Z
    FromStats_BitRate                        : 20787
    FromStats_Duration                       : 01:46:47.359000000
    FromStats_FrameCount                     : 1836
    FromStats_StreamSize                     : 16648906

    Text #2
    ID                                       : 5
    Format                                   : PGS
    Muxing mode                              : zlib
    Codec ID                                 : S_HDMV/PGS
    Codec ID/Info                            : Picture based subtitle format used on BDs/HD-DVDs
    Language                                 : Spanish
    Default                                  : No
    Forced                                   : No
    Statistics Tags Issue                    : mkvmerge v15.0.0 ('Duel with the Devil') 64-bit 2017-12-26 22:45:46 / mkvmerge v15.0.0 ('Duel with the Devil') 64-bit 2017-12-26 22:45:46 / UTC 2017-12-17T22:51:19Z
    FromStats_BitRate                        : 20316
    FromStats_Duration                       : 01:46:47.359000000
    FromStats_FrameCount                     : 1848
    FromStats_StreamSize                     : 16271545

    Menu
    00:00:00.000                             : :Chapter 1
    00:04:08.331                             : :Chapter 2
    00:08:11.574                             : :Chapter 3
    00:12:42.262                             : :Chapter 4
    00:21:24.408                             : :Chapter 5
    00:24:58.247                             : :Chapter 6
    00:35:16.239                             : :Chapter 7
    00:39:16.312                             : :Chapter 8
    00:47:03.821                             : :Chapter 9
    00:52:58.342                             : :Chapter 10
    00:56:26.300                             : :Chapter 11
    01:04:06.551                             : :Chapter 12
    01:05:41.312                             : :Chapter 13
    01:11:23.946                             : :Chapter 14
    01:17:06.664                             : :Chapter 15
    01:24:37.990                             : :Chapter 16
    01:30:37.599                             : :Chapter 17
    01:34:22.365                             : :Chapter 18
    01:39:33.468                             : :Chapter 19
    01:40:53.422                             : :Chapter 20

     

  • Peso: 6.53 GiB

Sinopsis

En el 2057, ante la inminente extinción de la humanidad a causa del envejecimiento del Sol, una nave espacial debe reactivar el astro con un dispositivo nuclear. Pero durante el viaje, la tripulación recibe una señal de socorro de la nave espacial Ícaro I, desaparecida años atrás tras intentar realizar la misma misión.

Ficha técnica

Video trailer de la película

Enlaces de descarga

Rip de Bluray

Descargar Sunshine (2007) Full 1080p Latino




Aportes de DPeliculasHDmega la pass es:dpeliculashdmega.org Aportes de CinemaniaHD la pass es:eatsouthward.com

Películas relacionadas

  • Niños del hombre (2006) Full 1080p Latino

    2006
    Niños del hombre (2006) Full 1080p Latino

    0.0 1 h 49 min 2006

    Año 2027: el ser humano está al borde de la extinción: los hombres han perdido la capacidad de procrear...

    Director: Terry Needham

    Género: Acción

    Actores: Yolanda Vazquez

  • Winchester (2018) 1080p Latino

    2018
    Winchester (2018) 1080p Latino

    0.0 1h 39m 2018

    A finales del siglo XIX, después de la trágica muerte de su marido y su hijo, Sarah construye una casa-fortaleza...

    Director: Peter Spierig

    Género: Fantasía

    Actores: Xavier Gouault

  • Unlocked (2017) 1080p Latino

    2017
    Unlocked (2017) 1080p Latino

    3.0 1h 43m 2017

    Gira en torno a una agente de la CIA, especializada en interrogatorios, que es engañada por un sospechoso,...

    Director: Vera Homolacova

    Género: Acción

    Actores: Tosin Cole

  • Para atrapar al ladrón (1955) Full 1080p Latino

    1955
    Para atrapar al ladrón (1955) Full 1080p Latino

    0.0 1h 46m 1955

    A pesar de que John Robie "El Gato" (Cary Grant) es un ladrón de joyas reformado, se convierte en el...

    Director: Alfred Hitchcock

    Género: Crimen

    Actores: William 'Wee Willie' Davis

Comentarios 0
-->