Sully (2016) Full 1080p Latino

805 vistas
1 estrella2 estrellas3 estrellas4 estrellas5 estrellas (1 votos, promedio: 5,00 de 5)
Cargando…

Información de Sully (2016) Full 1080p Latino

Datos de la película

  • Calidad: Full 1080p
  • Audio: Español Latino AC3 5.1 BLURAY - Ingles AC3 5.1 BLURAY
  • Subtitulos: Español Latino PGS - Ingles PGS
  • Resolución: 1920X1080p
  • Formato: MKV
  • Codec: H.264
  • Encoder: Dracarys
  • Mediainfo: Clic para Mostrar Datos Ver
  • Format                                   : Matroska
    Format version                           : Version 4 / Version 2
    File size                                : 2.71 GiB
    Duration                                 : 1 h 35 min
    Overall bit rate                         : 4 044 kb/s
    Movie name                               : CinemaniaHDD.com
    Encoded date                             : UTC 2017-12-17 07:55:42 / UTC 2017-12-09T16:23:19Z
    Writing application                      : mkvmerge v15.0.0 ('Duel with the Devil') 64-bit
    Writing library                          : libebml v1.3.5 + libmatroska v1.4.5 / Lavf57.7.2

    Video
    ID                                       : 1
    Format                                   : AVC
    Format/Info                              : Advanced Video Codec
    Format profile                           : [email protected]
    Format settings                          : CABAC / 4 Ref Frames
    Format settings, CABAC                   : Yes
    Format settings, RefFrames               : 4 frames
    Codec ID                                 : V_MPEG4/ISO/AVC
    Duration                                 : 1 h 35 min
    Bit rate                                 : 2 875 kb/s
    Width                                    : 1 920 pixels
    Height                                   : 1 080 pixels
    Display aspect ratio                     : 16:9
    Frame rate mode                          : Constant
    Frame rate                               : 23.976 (24000/1001) FPS
    Color space                              : YUV
    Chroma subsampling                       : 4:2:0
    Bit depth                                : 8 bits
    Scan type                                : Progressive
    Bits/(Pixel*Frame)                       : 0.058
    Stream size                              : 1.92 GiB (71%)
    Title                                    : Sully (2016) Full 1080p Latino
    Writing library                          : x264 core 148 r2708 86b7198
    Encoding settings                        : cabac=1 / ref=4 / deblock=1:0:0 / analyse=0x3:0x133 / me=esa / subme=10 / psy=1 / psy_rd=1.00:0.00 / mixed_ref=1 / me_range=24 / chroma_me=1 / trellis=2 / 8x8dct=1 / cqm=0 / deadzone=21,11 / fast_pskip=1 / chroma_qp_offset=-2 / threads=34 / lookahead_threads=5 / sliced_threads=0 / nr=0 / decimate=1 / interlaced=0 / bluray_compat=0 / constrained_intra=0 / bframes=8 / b_pyramid=2 / b_adapt=2 / b_bias=0 / direct=3 / weightb=1 / open_gop=0 / weightp=2 / keyint=240 / keyint_min=24 / scenecut=40 / intra_refresh=0 / rc_lookahead=60 / rc=crf / mbtree=1 / crf=20.0 / qcomp=0.60 / qpmin=0 / qpmax=69 / qpstep=4 / vbv_maxrate=62500 / vbv_bufsize=78125 / crf_max=0.0 / nal_hrd=none / filler=0 / ip_ratio=1.40 / aq=1:1.00
    Language                                 : English
    Default                                  : Yes
    Forced                                   : No
    Color range                              : Limited
    Color primaries                          : BT.709
    Transfer characteristics                 : BT.709
    Matrix coefficients                      : BT.709
    Statistics Tags Issue                    : mkvmerge v15.0.0 ('Duel with the Devil') 64-bit 2017-12-17 07:55:42 / mkvmerge v15.0.0 ('Duel with the Devil') 64-bit 2017-12-17 07:55:42 / UTC 2017-12-09T16:23:19Z
    FromStats_BitRate                        : 2925433
    FromStats_Duration                       : 01:35:50.620000000
    FromStats_FrameCount                     : 137877
    FromStats_StreamSize                     : 2102882159

    Audio #1
    ID                                       : 2
    Format                                   : AC-3
    Format/Info                              : Audio Coding 3
    Format settings, Endianness              : Big
    Codec ID                                 : A_AC3
    Duration                                 : 1 h 35 min
    Bit rate mode                            : Constant
    Bit rate                                 : 448 kb/s
    Channel(s)                               : 6 channels
    Channel positions                        : Front: L C R, Side: L R, LFE
    Sampling rate                            : 48.0 kHz
    Frame rate                               : 31.250 FPS (1536 SPF)
    Bit depth                                : 16 bits
    Compression mode                         : Lossy
    Stream size                              : 307 MiB (11%)
    Language                                 : Spanish
    Service kind                             : Complete Main
    Default                                  : Yes
    Forced                                   : No
    Statistics Tags Issue                    : mkvmerge v15.0.0 ('Duel with the Devil') 64-bit 2017-12-17 07:55:42 / mkvmerge v15.0.0 ('Duel with the Devil') 64-bit 2017-12-17 07:55:42 / UTC 2017-12-09T16:23:19Z
    FromStats_BitRate                        : 448000
    FromStats_Duration                       : 01:35:50.688000000
    FromStats_FrameCount                     : 179709
    FromStats_StreamSize                     : 322038528

    Audio #2
    ID                                       : 3
    Format                                   : AC-3
    Format/Info                              : Audio Coding 3
    Format settings, Endianness              : Big
    Codec ID                                 : A_AC3
    Duration                                 : 1 h 35 min
    Bit rate mode                            : Constant
    Bit rate                                 : 640 kb/s
    Channel(s)                               : 6 channels
    Channel positions                        : Front: L C R, Side: L R, LFE
    Sampling rate                            : 48.0 kHz
    Frame rate                               : 31.250 FPS (1536 SPF)
    Bit depth                                : 16 bits
    Compression mode                         : Lossy
    Stream size                              : 439 MiB (16%)
    Language                                 : English
    Service kind                             : Complete Main
    Default                                  : No
    Forced                                   : No
    Statistics Tags Issue                    : mkvmerge v15.0.0 ('Duel with the Devil') 64-bit 2017-12-17 07:55:42 / mkvmerge v15.0.0 ('Duel with the Devil') 64-bit 2017-12-17 07:55:42 / UTC 2017-12-09T16:23:19Z
    FromStats_BitRate                        : 640000
    FromStats_Duration                       : 01:35:50.688000000
    FromStats_FrameCount                     : 179709
    FromStats_StreamSize                     : 460055040

    Text #1
    ID                                       : 4
    Format                                   : PGS
    Muxing mode                              : zlib
    Codec ID                                 : S_HDMV/PGS
    Codec ID/Info                            : Picture based subtitle format used on BDs/HD-DVDs
    Language                                 : English
    Default                                  : No
    Forced                                   : No
    Statistics Tags Issue                    : mkvmerge v15.0.0 ('Duel with the Devil') 64-bit 2017-12-17 07:55:42 / mkvmerge v15.0.0 ('Duel with the Devil') 64-bit 2017-12-17 07:55:42 / UTC 2017-12-09T16:23:19Z
    FromStats_BitRate                        : 48353
    FromStats_Duration                       : 01:35:44.239000000
    FromStats_FrameCount                     : 3282
    FromStats_StreamSize                     : 34719149

    Text #2
    ID                                       : 5
    Format                                   : PGS
    Muxing mode                              : zlib
    Codec ID                                 : S_HDMV/PGS
    Codec ID/Info                            : Picture based subtitle format used on BDs/HD-DVDs
    Language                                 : Spanish
    Default                                  : No
    Forced                                   : No
    Statistics Tags Issue                    : mkvmerge v15.0.0 ('Duel with the Devil') 64-bit 2017-12-17 07:55:42 / mkvmerge v15.0.0 ('Duel with the Devil') 64-bit 2017-12-17 07:55:42 / UTC 2017-12-09T16:23:19Z
    FromStats_BitRate                        : 40851
    FromStats_Duration                       : 01:35:44.239000000
    FromStats_FrameCount                     : 3038
    FromStats_StreamSize                     : 29332785

    Menu
    00:00:00.000                             : :Chapter 1
    00:11:12.505                             : :Chapter 2
    00:18:06.168                             : :Chapter 3
    00:29:57.921                             : :Chapter 4
    00:38:55.416                             : :Chapter 5
    00:49:20.749                             : :Chapter 6
    01:00:50.856                             : :Chapter 7
    01:08:16.384                             : :Chapter 8
    01:18:09.810                             : :Chapter 9
    01:26:59.798                             : :Chapter 10

  • Peso: 2.71 GiB

Sinopsis

Chesley “Sully” Sullenberger es un piloto comercial que en 2009 se convirtió en un héroe cuando, al poco de despegar, su avión se averió y el comandante logró realizar un aterrizaje forzoso del aparato en pleno río Hudson, en Nueva York, con 155 pasajeros a bordo.

Ficha técnica

Video trailer de la película

Enlaces de descarga

Rip de Bluray

Descargar Sully (2016) Full 1080p Latino




Aportes de DPeliculasHDmega la pass es:dpeliculashdmega.org Aportes de CinemaniaHD la pass es:eatsouthward.com

Películas relacionadas

  • A Ghost Story (2017) 1080p Latino

    2017
    A Ghost Story (2017) 1080p Latino

    0.0 1h 27m 2017

    Un hombre recientemente fallecido regresa a su casa como un fantasma vestido con una sábana blanca para...

    Director: David Lowery

    Género: Drama

    Actores: Yasmina Gutierrez

  • Maze Runner prueba de fuego (2015) Full 1080p Latino

    2015
    Maze Runner prueba de fuego (2015) Full 1080p Latino

    5.0 2 h 11 min 2015

    En este nuevo capítulo de la trepidante saga "El Corredor del Laberinto", Thomas (Dylan O'Brien) y el...

    Director: Wes Ball

    Género: Acción

    Actores: Thomas Brodie-Sangster

  • Maze Runner correr o morir (2014) Full 1080p Latino

    2014
    Maze Runner correr o morir (2014) Full 1080p Latino

    5.0 1 h 53 min 2014

    Thomas abre los ojos y se da cuenta que está en un ascensor. Lo extraño es que no recuerda nada, ni...

    Director: Wes Ball

    Género: Acción

    Actores: Will Poulter

  • Se dice de mí (2010) Full 1080p Latino

    2010
    Se dice de mí (2010) Full 1080p Latino

    5.0 1 h 32 min 2010

    El guión, obra del dramaturgo Bert V. Royal, es una versión moderna y en clave estudiantil de “La...

    Director: Will Sandoval

    Género: Comedia

    Actores: Zack Kennedy

  • Rebeldes con causa (2007) Full 1080p Latino

    2007
    Rebeldes con causa (2007) Full 1080p Latino

    5.0 1h 39m 2007

    Cuatro amigos de mediana edad (Travolta, Allen, Lawrence y H. Macy), entusiastas de las motos, deciden...

    Director: Walt Becker

    Género: Acción

    Actores: William H. Macy

Comentarios 1
  • Tio Higuera - 21 diciembre, 2017

    Muy buena.
    todo bien.

-->