Suicide Squad Hell to Pay (2018) Full 1080p Latino

1.140 vistas
1 estrella2 estrellas3 estrellas4 estrellas5 estrellas (1 votos, promedio: 5,00 de 5)
Cargando…

Información de Suicide Squad Hell to Pay (2018) Full 1080p Latino

Datos de la película

  • Calidad: Full 1080p
  • Audio: Español Latino AC3 5.1 BLURAY - Ingles DTS 5.1 BLURAY
  • Subtitulos: Español Latino PGS - Ingles PGS
  • Resolución: 1920x1080p
  • Formato: MKV
  • Codec: H.264
  • Encoder: Dracarys
  • Mediainfo: Clic para Mostrar Datos Ver
  • Format                                   : Matroska
    Format version                           : Version 4 / Version 2
    File size                                : 2.45 GiB
    Duration                                 : 1 h 26 min
    Overall bit rate                         : 4 080 kb/s
    Movie name                               : CinemaniaHDD.com
    Encoded date                             : UTC 2018-04-12 19:09:54 / UTC 2018-04-12T07:12:29Z
    Writing application                      : mkvmerge v15.0.0 ('Duel with the Devil') 64-bit
    Writing library                          : libebml v1.3.5 + libmatroska v1.4.5 / Lavf57.7.2

    Video
    ID                                       : 1
    Format                                   : AVC
    Format/Info                              : Advanced Video Codec
    Format profile                           : [email protected]
    Format settings                          : CABAC / 4 Ref Frames
    Format settings, CABAC                   : Yes
    Format settings, RefFrames               : 4 frames
    Codec ID                                 : V_MPEG4/ISO/AVC
    Duration                                 : 1 h 26 min
    Bit rate                                 : 1 850 kb/s
    Width                                    : 1 920 pixels
    Height                                   : 1 080 pixels
    Display aspect ratio                     : 16:9
    Frame rate mode                          : Constant
    Frame rate                               : 23.976 (24000/1001) FPS
    Color space                              : YUV
    Chroma subsampling                       : 4:2:0
    Bit depth                                : 8 bits
    Scan type                                : Progressive
    Bits/(Pixel*Frame)                       : 0.037
    Stream size                              : 1.11 GiB (45%)
    Title                                    : Suicide Squad Hell to Pay (2018) Full 1080p Latino
    Writing library                          : x264 core 148 r2708 86b7198
    Encoding settings                        : cabac=1 / ref=4 / deblock=1:0:0 / analyse=0x3:0x133 / me=esa / subme=9 / psy=1 / psy_rd=1.00:0.00 / mixed_ref=1 / me_range=16 / chroma_me=1 / trellis=2 / 8x8dct=1 / cqm=0 / deadzone=21,11 / fast_pskip=1 / chroma_qp_offset=-2 / threads=34 / lookahead_threads=2 / sliced_threads=0 / nr=0 / decimate=1 / interlaced=0 / bluray_compat=0 / constrained_intra=0 / bframes=3 / b_pyramid=2 / b_adapt=2 / b_bias=0 / direct=3 / weightb=1 / open_gop=0 / weightp=2 / keyint=240 / keyint_min=24 / scenecut=40 / intra_refresh=0 / rc_lookahead=60 / rc=crf / mbtree=1 / crf=20.0 / qcomp=0.60 / qpmin=0 / qpmax=69 / qpstep=4 / vbv_maxrate=62500 / vbv_bufsize=78125 / crf_max=0.0 / nal_hrd=none / filler=0 / ip_ratio=1.40 / aq=1:1.00
    Language                                 : English
    Default                                  : Yes
    Forced                                   : No
    Color range                              : Limited
    Color primaries                          : BT.709
    Transfer characteristics                 : BT.709
    Matrix coefficients                      : BT.709
    Statistics Tags Issue                    : mkvmerge v15.0.0 ('Duel with the Devil') 64-bit 2018-04-12 19:09:54 / mkvmerge v15.0.0 ('Duel with the Devil') 64-bit 2018-04-12 19:09:54 / UTC 2018-04-12T07:12:29Z
    FromStats_BitRate                        : 1910661
    FromStats_Duration                       : 01:26:03.033000000
    FromStats_FrameCount                     : 123789
    FromStats_StreamSize                     : 1233100990

    Audio #1
    ID                                       : 2
    Format                                   : AC-3
    Format/Info                              : Audio Coding 3
    Format settings, Endianness              : Big
    Codec ID                                 : A_AC3
    Duration                                 : 1 h 26 min
    Bit rate mode                            : Constant
    Bit rate                                 : 640 kb/s
    Channel(s)                               : 6 channels
    Channel positions                        : Front: L C R, Side: L R, LFE
    Sampling rate                            : 48.0 kHz
    Frame rate                               : 31.250 FPS (1536 SPF)
    Bit depth                                : 16 bits
    Compression mode                         : Lossy
    Stream size                              : 394 MiB (16%)
    Language                                 : Spanish
    Service kind                             : Complete Main
    Default                                  : Yes
    Forced                                   : No
    Statistics Tags Issue                    : mkvmerge v15.0.0 ('Duel with the Devil') 64-bit 2018-04-12 19:09:54 / mkvmerge v15.0.0 ('Duel with the Devil') 64-bit 2018-04-12 19:09:54 / UTC 2018-04-12T07:12:29Z
    FromStats_BitRate                        : 640000
    FromStats_Duration                       : 01:26:03.040000000
    FromStats_FrameCount                     : 161345
    FromStats_StreamSize                     : 413043200

    Audio #2
    ID                                       : 3
    Format                                   : DTS
    Format/Info                              : Digital Theater Systems
    Mode                                     : 16
    Format settings, Endianness              : Big
    Codec ID                                 : A_DTS
    Duration                                 : 1 h 26 min
    Bit rate mode                            : Constant
    Bit rate                                 : 1 509 kb/s
    Channel(s)                               : 6 channels
    Channel positions                        : Front: L C R, Side: L R, LFE
    Sampling rate                            : 48.0 kHz
    Frame rate                               : 93.750 FPS (512 SPF)
    Bit depth                                : 24 bits
    Compression mode                         : Lossy
    Stream size                              : 929 MiB (37%)
    Language                                 : English
    Default                                  : No
    Forced                                   : No
    Statistics Tags Issue                    : mkvmerge v15.0.0 ('Duel with the Devil') 64-bit 2018-04-12 19:09:54 / mkvmerge v15.0.0 ('Duel with the Devil') 64-bit 2018-04-12 19:09:54 / UTC 2018-04-12T07:12:29Z
    FromStats_BitRate                        : 1508999
    FromStats_Duration                       : 01:26:03.030000000
    FromStats_FrameCount                     : 484034
    FromStats_StreamSize                     : 973876408

    Text #1
    ID                                       : 4
    Format                                   : PGS
    Muxing mode                              : zlib
    Codec ID                                 : S_HDMV/PGS
    Codec ID/Info                            : Picture based subtitle format used on BDs/HD-DVDs
    Language                                 : English
    Default                                  : No
    Forced                                   : No
    Statistics Tags Issue                    : mkvmerge v15.0.0 ('Duel with the Devil') 64-bit 2018-04-12 19:09:54 / mkvmerge v15.0.0 ('Duel with the Devil') 64-bit 2018-04-12 19:09:54 / UTC 2018-04-12T07:12:29Z
    FromStats_BitRate                        : 31644
    FromStats_Duration                       : 01:25:32.920000000
    FromStats_FrameCount                     : 2109
    FromStats_StreamSize                     : 20303437

    Text #2
    ID                                       : 5
    Format                                   : PGS
    Muxing mode                              : zlib
    Codec ID                                 : S_HDMV/PGS
    Codec ID/Info                            : Picture based subtitle format used on BDs/HD-DVDs
    Language                                 : Spanish
    Default                                  : No
    Forced                                   : No
    Statistics Tags Issue                    : mkvmerge v15.0.0 ('Duel with the Devil') 64-bit 2018-04-12 19:09:54 / mkvmerge v15.0.0 ('Duel with the Devil') 64-bit 2018-04-12 19:09:54 / UTC 2018-04-12T07:12:29Z
    FromStats_BitRate                        : 26005
    FromStats_Duration                       : 01:25:39.593000000
    FromStats_FrameCount                     : 1720
    FromStats_StreamSize                     : 16707390

    Menu
    00:00:00.000                             : :Chapter 1
    00:10:21.621                             : :Chapter 2
    00:19:57.321                             : :Chapter 3
    00:35:58.823                             : :Chapter 4
    00:48:13.474                             : :Chapter 5
    00:55:38.293                             : :Chapter 6
    01:01:51.875                             : :Chapter 7
    01:15:39.118                             : :Chapter 8
    01:22:49.047                             : :Chapter 9

  • Peso: 2.45 GiB

Sinopsis

Task Force X ocupará el lugar central para el próximo lanzamiento en la primavera de 2018 con Suicide Squad: Hell to Pay. Los detalles sobre esto son escasos, pero será una historia original en lugar de una adaptación de cualquier historia de cómic existente.

Ficha técnica

  • Titulo original: Suicide Squad: Hell to Pay
  • Fecha de lanzamiento: 27-03-2018 (United States of America)
  • Director: Sam Liu
  • Género: Acción, Animación, FULL 1080p Plateadas
  • Puntuación: 5.0 1 votos
  • Duración:
    1 h 26 min

Video trailer de la película

Enlaces de descarga

Rip de Bluray

Descargar Suicide Squad Hell to Pay (2018) Full 1080p Latino




Aportes de DPeliculasHDmega la pass es:dpeliculashdmega.org Aportes de CinemaniaHD la pass es:eatsouthward.com

Películas relacionadas

  • Batman Ninja (2018) WEB-DL 1080p Latino

    2018
    Batman Ninja (2018) WEB-DL 1080p Latino

    5.0 1h 25m 2018

    Batman, junto a sus aliados y enemigos, se ve transportado desde la moderna Gotham hasta el Japón feudal....

    Director: Junpei Mizusaki

    Género: Acción

    Actores: Yuuki Kaji

  • Niños del hombre (2006) Full 1080p Latino

    2006
    Niños del hombre (2006) Full 1080p Latino

    0.0 1 h 49 min 2006

    Año 2027: el ser humano está al borde de la extinción: los hombres han perdido la capacidad de procrear...

    Director: Terry Needham

    Género: Acción

    Actores: Yolanda Vazquez

  • Unlocked (2017) 1080p Latino

    2017
    Unlocked (2017) 1080p Latino

    3.0 1h 43m 2017

    Gira en torno a una agente de la CIA, especializada en interrogatorios, que es engañada por un sospechoso,...

    Director: Vera Homolacova

    Género: Acción

    Actores: Tosin Cole

  • Para atrapar al ladrón (1955) Full 1080p Latino

    1955
    Para atrapar al ladrón (1955) Full 1080p Latino

    0.0 1h 46m 1955

    A pesar de que John Robie "El Gato" (Cary Grant) es un ladrón de joyas reformado, se convierte en el...

    Director: Alfred Hitchcock

    Género: Crimen

    Actores: William 'Wee Willie' Davis

Comentarios 1
  • jefferson - 13 abril, 2018

    Buena peli, genial y gracias como siempre.

-->