Star Trek: En la oscuridad (2013) Full 1080p Latino

916 vistas
1 estrella2 estrellas3 estrellas4 estrellas5 estrellas (1 votos, promedio: 5,00 de 5)
Cargando…

Información de Star Trek: En la oscuridad (2013) Full 1080p Latino

Datos de la película

  • Calidad: Full 1080p
  • Audio: Español Latino AC3 5.1 BLURAY - Ingles AC3 5.1 BLURAY
  • Subtitulos: Español Latino PGS - Ingles PGS
  • Resolución: 1920X1080
  • Formato: MKV
  • Codec: H.264
  • Encoder: Dracarys
  • Mediainfo: Clic para Mostrar Datos Ver
  • Format                                   : Matroska
    Format version                           : Version 4 / Version 2
    File size                                : 8.11 GiB
    Duration                                 : 2 h 12 min
    Overall bit rate                         : 8 787 kb/s
    Movie name                               : CinemaniaHDD.com
    Encoded date                             : UTC 2017-12-13 01:31:33 / UTC 2017-12-11T23:36:22Z
    Writing application                      : mkvmerge v15.0.0 ('Duel with the Devil') 64-bit
    Writing library                          : libebml v1.3.5 + libmatroska v1.4.5 / Lavf57.7.2

    Video
    ID                                       : 1
    Format                                   : AVC
    Format/Info                              : Advanced Video Codec
    Format profile                           : [email protected]
    Format settings                          : CABAC / 4 Ref Frames
    Format settings, CABAC                   : Yes
    Format settings, RefFrames               : 4 frames
    Codec ID                                 : V_MPEG4/ISO/AVC
    Duration                                 : 2 h 12 min
    Bit rate                                 : 7 332 kb/s
    Width                                    : 1 920 pixels
    Height                                   : 1 080 pixels
    Display aspect ratio                     : 16:9
    Frame rate mode                          : Constant
    Frame rate                               : 23.976 (24000/1001) FPS
    Color space                              : YUV
    Chroma subsampling                       : 4:2:0
    Bit depth                                : 8 bits
    Scan type                                : Progressive
    Bits/(Pixel*Frame)                       : 0.147
    Stream size                              : 6.77 GiB (83%)
    Title                                    : Star Trek: En la oscuridad (2013) Full 1080p Latino
    Writing library                          : x264 core 148 r2708 86b7198
    Encoding settings                        : cabac=1 / ref=4 / deblock=1:0:0 / analyse=0x3:0x133 / me=esa / subme=10 / psy=1 / psy_rd=1.00:0.00 / mixed_ref=1 / me_range=24 / chroma_me=1 / trellis=2 / 8x8dct=1 / cqm=0 / deadzone=21,11 / fast_pskip=1 / chroma_qp_offset=-2 / threads=34 / lookahead_threads=5 / sliced_threads=0 / nr=0 / decimate=1 / interlaced=0 / bluray_compat=0 / constrained_intra=0 / bframes=8 / b_pyramid=2 / b_adapt=2 / b_bias=0 / direct=3 / weightb=1 / open_gop=0 / weightp=2 / keyint=240 / keyint_min=24 / scenecut=40 / intra_refresh=0 / rc_lookahead=60 / rc=crf / mbtree=1 / crf=20.0 / qcomp=0.60 / qpmin=0 / qpmax=69 / qpstep=4 / vbv_maxrate=62500 / vbv_bufsize=78125 / crf_max=0.0 / nal_hrd=none / filler=0 / ip_ratio=1.40 / aq=1:1.00
    Language                                 : English
    Default                                  : Yes
    Forced                                   : No
    Color range                              : Limited
    Color primaries                          : BT.709
    Transfer characteristics                 : BT.709
    Matrix coefficients                      : BT.709
    Statistics Tags Issue                    : mkvmerge v15.0.0 ('Duel with the Devil') 64-bit 2017-12-13 01:31:33 / mkvmerge v15.0.0 ('Duel with the Devil') 64-bit 2017-12-13 01:31:33 / UTC 2017-12-11T23:36:22Z
    FromStats_BitRate                        : 7483285
    FromStats_Duration                       : 02:12:05.960000000
    FromStats_FrameCount                     : 190033
    FromStats_StreamSize                     : 7414027879

    Audio #1
    ID                                       : 2
    Format                                   : AC-3
    Format/Info                              : Audio Coding 3
    Format settings, Endianness              : Big
    Codec ID                                 : A_AC3
    Duration                                 : 2 h 12 min
    Bit rate mode                            : Constant
    Bit rate                                 : 640 kb/s
    Channel(s)                               : 6 channels
    Channel positions                        : Front: L C R, Side: L R, LFE
    Sampling rate                            : 48.0 kHz
    Frame rate                               : 31.250 FPS (1536 SPF)
    Bit depth                                : 16 bits
    Compression mode                         : Lossy
    Stream size                              : 605 MiB (7%)
    Language                                 : Spanish
    Service kind                             : Complete Main
    Default                                  : Yes
    Forced                                   : No
    Statistics Tags Issue                    : mkvmerge v15.0.0 ('Duel with the Devil') 64-bit 2017-12-13 01:31:33 / mkvmerge v15.0.0 ('Duel with the Devil') 64-bit 2017-12-13 01:31:33 / UTC 2017-12-11T23:36:22Z
    FromStats_BitRate                        : 640000
    FromStats_Duration                       : 02:12:05.984000000
    FromStats_FrameCount                     : 247687
    FromStats_StreamSize                     : 634078720

    Audio #2
    ID                                       : 3
    Format                                   : AC-3
    Format/Info                              : Audio Coding 3
    Format settings, Endianness              : Big
    Codec ID                                 : A_AC3
    Duration                                 : 2 h 12 min
    Bit rate mode                            : Constant
    Bit rate                                 : 640 kb/s
    Channel(s)                               : 6 channels
    Channel positions                        : Front: L C R, Side: L R, LFE
    Sampling rate                            : 48.0 kHz
    Frame rate                               : 31.250 FPS (1536 SPF)
    Bit depth                                : 16 bits
    Compression mode                         : Lossy
    Stream size                              : 605 MiB (7%)
    Language                                 : English
    Service kind                             : Complete Main
    Default                                  : No
    Forced                                   : No
    Statistics Tags Issue                    : mkvmerge v15.0.0 ('Duel with the Devil') 64-bit 2017-12-13 01:31:33 / mkvmerge v15.0.0 ('Duel with the Devil') 64-bit 2017-12-13 01:31:33 / UTC 2017-12-11T23:36:22Z
    FromStats_BitRate                        : 640000
    FromStats_Duration                       : 02:12:05.984000000
    FromStats_FrameCount                     : 247687
    FromStats_StreamSize                     : 634078720

    Text #1
    ID                                       : 4
    Format                                   : PGS
    Muxing mode                              : zlib
    Codec ID                                 : S_HDMV/PGS
    Codec ID/Info                            : Picture based subtitle format used on BDs/HD-DVDs
    Language                                 : Spanish
    Default                                  : No
    Forced                                   : No
    Statistics Tags Issue                    : mkvmerge v15.0.0 ('Duel with the Devil') 64-bit 2017-12-13 01:31:33 / mkvmerge v15.0.0 ('Duel with the Devil') 64-bit 2017-12-13 01:31:33 / UTC 2017-12-11T23:36:22Z
    FromStats_BitRate                        : 34510
    FromStats_Duration                       : 02:02:16.162000000
    FromStats_FrameCount                     : 2788
    FromStats_StreamSize                     : 31646580

    Text #2
    ID                                       : 5
    Format                                   : PGS
    Muxing mode                              : zlib
    Codec ID                                 : S_HDMV/PGS
    Codec ID/Info                            : Picture based subtitle format used on BDs/HD-DVDs
    Language                                 : English
    Default                                  : No
    Forced                                   : No
    Statistics Tags Issue                    : mkvmerge v15.0.0 ('Duel with the Devil') 64-bit 2017-12-13 01:31:33 / mkvmerge v15.0.0 ('Duel with the Devil') 64-bit 2017-12-13 01:31:33 / UTC 2017-12-11T23:36:22Z
    FromStats_BitRate                        : 41818
    FromStats_Duration                       : 02:01:43.797000000
    FromStats_FrameCount                     : 3507
    FromStats_StreamSize                     : 38179569

    Menu
    00:00:00.000                             : :Chapter 1
    00:10:20.370                             : :Chapter 2
    00:19:21.494                             : :Chapter 3
    00:30:03.969                             : :Chapter 4
    00:40:09.115                             : :Chapter 5
    00:46:05.263                             : :Chapter 6
    00:56:38.228                             : :Chapter 7
    01:06:35.783                             : :Chapter 8
    01:12:55.663                             : :Chapter 9
    01:22:45.752                             : :Chapter 10
    01:30:54.741                             : :Chapter 11
    01:38:36.369                             : :Chapter 12
    01:47:09.548                             : :Chapter 13
    01:54:17.142                             : :Chapter 14
    01:59:20.654                             : :Chapter 15
    02:03:18.308                             : :Chapter 16

  • Peso: 8.11 GiB

Sinopsis

Cuando a la tripulación de la nave Enterprise le ordenan que regrese a casa, en la Tierra se enfrentan a una terrorífica fuerza que, aparentemente desde dentro, ha perpetrado un ataque a la cúpula de la Federación y todo lo que ésta representa, sumiendo a la flota en una profunda crisis. Para intentar solucionar el problema, y con un asunto personal que resolver, el capitán Kirk encabeza una incursión a un planeta en guerra para capturar a un hombre que es un arma de destrucción masiva. A medida que nuestros héroes se van sumergiendo en una épica partida de ajedrez a vida o muerte, la lealtad se verá puesta a prueba, las amistades se romperán, y habrá que hacer ciertos sacrificios por la única familia que le queda a Kirk: su tripulación.

Ficha técnica

Video trailer de la película

Enlaces de descarga

Rip de Bluray

Descargar Star Trek: En la oscuridad (2013) Full 1080p Latino




Aportes de DPeliculasHDmega la pass es:dpeliculashdmega.org Aportes de CinemaniaHD la pass es:eatsouthward.com

Películas relacionadas

  • Bushwick (2017) 1080p Latino

    2017
    Bushwick (2017) 1080p Latino

    5.0 1h 34m 2017

    Cuando Lucy sale del metro en Bushwick, el último barrio de moda de Nueva York, no encuentra ni hipsters...

    Director: Jonathan Milott

    Género: Acción

    Actores: Myra Lucretia Taylor

  • Gun shy (2017) 1080p Latino

    2017
    Gun shy (2017) 1080p Latino

    0.0 1h 31m 2017

    Basada en la novela homónima de Mark Haskell Smith. Turk Henry es una antigua estrella de rock con sobrepeso...

    Director: Simon West

    Género: Acción

    Actores: Sebastián Apiolaza

  • Deep Blue Sea 2 (2018) 1080p Latino

    2018
    Deep Blue Sea 2 (2018) 1080p Latino

    5.0 1h 34m 2018

    La Doctora Misty Calhoun, conservacionista de tiburones, es invitada para asesorar un proyecto secreto...

    Director: Darin Scott

    Género: Acción

    Actores: Rob Mayes

  • Maze Runner prueba de fuego (2015) Full 1080p Latino

    2015
    Maze Runner prueba de fuego (2015) Full 1080p Latino

    5.0 2 h 11 min 2015

    En este nuevo capítulo de la trepidante saga "El Corredor del Laberinto", Thomas (Dylan O'Brien) y el...

    Director: Wes Ball

    Género: Acción

    Actores: Thomas Brodie-Sangster

  • Maze Runner correr o morir (2014) Full 1080p Latino

    2014
    Maze Runner correr o morir (2014) Full 1080p Latino

    5.0 1 h 53 min 2014

    Thomas abre los ojos y se da cuenta que está en un ascensor. Lo extraño es que no recuerda nada, ni...

    Director: Wes Ball

    Género: Acción

    Actores: Will Poulter

Comentarios 2
  • Usuario Agradecido - 21 diciembre, 2017

    ESTIMADOS: Muchas gracias por subir la saga Star Trek en tan buena definición! Tal vez puedan subir las útimas de Star Wars (desde Episodio VII) con la misma calidad. Gracias nuevamente!! Los recomiendo siempre!! Aprovecho para desearles muy FELICES FIESTAS!!!!

    • Dpelis2 - 21 diciembre, 2017

      Muchas Gracias estimado, y claro que si se vienen las de Star Wars. Felices fiestas para ti igual Saludos

-->