Star Trek, El Futuro Comienza (2009) Full 1080p Latino

1.762 vistas
1 estrella2 estrellas3 estrellas4 estrellas5 estrellas (2 votos, promedio: 3,00 de 5)
Cargando…

Información de Star Trek, El Futuro Comienza (2009) Full 1080p Latino

Datos de la película

  • Calidad: Full 1080p
  • Audio: Español Latino AC3 5.1 BLURAY - Ingles AC3 5.1 BLURAY
  • Subtitulos: Español Latino PGS - Ingles PGS
  • Resolución: 1920X1080
  • Formato: MKV
  • Codec: H.264
  • Encoder: Dracarys
  • Mediainfo: Clic para Mostrar Datos Ver
  • Format                                   : Matroska
    Format version                           : Version 4 / Version 2
    File size                                : 8.28 GiB
    Duration                                 : 2 h 6 min
    Overall bit rate                         : 9 342 kb/s
    Movie name                               : CinemaniaHDD.com
    Encoded date                             : UTC 2017-12-12 01:06:45 / UTC 2017-12-11T19:56:26Z
    Writing application                      : mkvmerge v15.0.0 ('Duel with the Devil') 64-bit
    Writing library                          : libebml v1.3.5 + libmatroska v1.4.5 / Lavf57.7.2

    Video
    ID                                       : 1
    Format                                   : AVC
    Format/Info                              : Advanced Video Codec
    Format profile                           : [email protected]
    Format settings                          : CABAC / 4 Ref Frames
    Format settings, CABAC                   : Yes
    Format settings, RefFrames               : 4 frames
    Codec ID                                 : V_MPEG4/ISO/AVC
    Duration                                 : 2 h 6 min
    Bit rate                                 : 7 876 kb/s
    Width                                    : 1 920 pixels
    Height                                   : 1 080 pixels
    Display aspect ratio                     : 16:9
    Frame rate mode                          : Constant
    Frame rate                               : 23.976 (24000/1001) FPS
    Color space                              : YUV
    Chroma subsampling                       : 4:2:0
    Bit depth                                : 8 bits
    Scan type                                : Progressive
    Bits/(Pixel*Frame)                       : 0.158
    Stream size                              : 6.98 GiB (84%)
    Title                                    : Star Trek, El Futuro Comienza (2009) Full 1080p Latino
    Writing library                          : x264 core 148 r2708 86b7198
    Encoding settings                        : cabac=1 / ref=4 / deblock=1:0:0 / analyse=0x3:0x133 / me=esa / subme=10 / psy=1 / psy_rd=1.00:0.00 / mixed_ref=1 / me_range=24 / chroma_me=1 / trellis=2 / 8x8dct=1 / cqm=0 / deadzone=21,11 / fast_pskip=1 / chroma_qp_offset=-2 / threads=34 / lookahead_threads=5 / sliced_threads=0 / nr=0 / decimate=1 / interlaced=0 / bluray_compat=0 / constrained_intra=0 / bframes=8 / b_pyramid=2 / b_adapt=2 / b_bias=0 / direct=3 / weightb=1 / open_gop=0 / weightp=2 / keyint=240 / keyint_min=24 / scenecut=40 / intra_refresh=0 / rc_lookahead=60 / rc=crf / mbtree=1 / crf=20.0 / qcomp=0.60 / qpmin=0 / qpmax=69 / qpstep=4 / vbv_maxrate=62500 / vbv_bufsize=78125 / crf_max=0.0 / nal_hrd=none / filler=0 / ip_ratio=1.40 / aq=1:1.00
    Language                                 : English
    Default                                  : Yes
    Forced                                   : No
    Color range                              : Limited
    Color primaries                          : BT.709
    Transfer characteristics                 : BT.709
    Matrix coefficients                      : BT.709
    Statistics Tags Issue                    : mkvmerge v15.0.0 ('Duel with the Devil') 64-bit 2017-12-12 01:06:45 / mkvmerge v15.0.0 ('Duel with the Devil') 64-bit 2017-12-12 01:06:45 / UTC 2017-12-11T19:56:26Z
    FromStats_BitRate                        : 8040545
    FromStats_Duration                       : 02:06:50.270000000
    FromStats_FrameCount                     : 182464
    FromStats_StreamSize                     : 7648839809

    Audio #1
    ID                                       : 2
    Format                                   : AC-3
    Format/Info                              : Audio Coding 3
    Format settings, Endianness              : Big
    Codec ID                                 : A_AC3
    Duration                                 : 2 h 6 min
    Bit rate mode                            : Constant
    Bit rate                                 : 640 kb/s
    Channel(s)                               : 6 channels
    Channel positions                        : Front: L C R, Side: L R, LFE
    Sampling rate                            : 48.0 kHz
    Frame rate                               : 31.250 FPS (1536 SPF)
    Bit depth                                : 16 bits
    Compression mode                         : Lossy
    Stream size                              : 581 MiB (7%)
    Language                                 : Spanish
    Service kind                             : Complete Main
    Default                                  : Yes
    Forced                                   : No
    Statistics Tags Issue                    : mkvmerge v15.0.0 ('Duel with the Devil') 64-bit 2017-12-12 01:06:45 / mkvmerge v15.0.0 ('Duel with the Devil') 64-bit 2017-12-12 01:06:45 / UTC 2017-12-11T19:56:26Z
    FromStats_BitRate                        : 640000
    FromStats_Duration                       : 02:06:50.272000000
    FromStats_FrameCount                     : 237821
    FromStats_StreamSize                     : 608821760

    Audio #2
    ID                                       : 3
    Format                                   : AC-3
    Format/Info                              : Audio Coding 3
    Format settings, Endianness              : Big
    Codec ID                                 : A_AC3
    Duration                                 : 2 h 6 min
    Bit rate mode                            : Constant
    Bit rate                                 : 640 kb/s
    Channel(s)                               : 6 channels
    Channel positions                        : Front: L C R, Side: L R, LFE
    Sampling rate                            : 48.0 kHz
    Frame rate                               : 31.250 FPS (1536 SPF)
    Bit depth                                : 16 bits
    Compression mode                         : Lossy
    Stream size                              : 581 MiB (7%)
    Language                                 : English
    Service kind                             : Complete Main
    Default                                  : No
    Forced                                   : No
    Statistics Tags Issue                    : mkvmerge v15.0.0 ('Duel with the Devil') 64-bit 2017-12-12 01:06:45 / mkvmerge v15.0.0 ('Duel with the Devil') 64-bit 2017-12-12 01:06:45 / UTC 2017-12-11T19:56:26Z
    FromStats_BitRate                        : 640000
    FromStats_Duration                       : 02:06:50.272000000
    FromStats_FrameCount                     : 237821
    FromStats_StreamSize                     : 608821760

    Text #1
    ID                                       : 4
    Format                                   : PGS
    Muxing mode                              : zlib
    Codec ID                                 : S_HDMV/PGS
    Codec ID/Info                            : Picture based subtitle format used on BDs/HD-DVDs
    Title                                    : Forzados
    Language                                 : Spanish
    Default                                  : Yes
    Forced                                   : Yes
    Statistics Tags Issue                    : mkvmerge v15.0.0 ('Duel with the Devil') 64-bit 2017-12-12 01:06:45 / mkvmerge v15.0.0 ('Duel with the Devil') 64-bit 2017-12-12 01:06:45 / UTC 2017-12-11T19:56:26Z
    FromStats_BitRate                        : 223
    FromStats_Duration                       : 00:13:51.873000000
    FromStats_FrameCount                     : 4
    FromStats_StreamSize                     : 23232

    Text #2
    ID                                       : 5
    Format                                   : PGS
    Muxing mode                              : zlib
    Codec ID                                 : S_HDMV/PGS
    Codec ID/Info                            : Picture based subtitle format used on BDs/HD-DVDs
    Language                                 : Spanish
    Default                                  : No
    Forced                                   : No
    Statistics Tags Issue                    : mkvmerge v15.0.0 ('Duel with the Devil') 64-bit 2017-12-12 01:06:45 / mkvmerge v15.0.0 ('Duel with the Devil') 64-bit 2017-12-12 01:06:45 / UTC 2017-12-11T19:56:26Z
    FromStats_BitRate                        : 33045
    FromStats_Duration                       : 01:57:00.638000000
    FromStats_FrameCount                     : 2610
    FromStats_StreamSize                     : 28999647

    Text #3
    ID                                       : 6
    Format                                   : PGS
    Muxing mode                              : zlib
    Codec ID                                 : S_HDMV/PGS
    Codec ID/Info                            : Picture based subtitle format used on BDs/HD-DVDs
    Language                                 : English
    Default                                  : No
    Forced                                   : No
    Statistics Tags Issue                    : mkvmerge v15.0.0 ('Duel with the Devil') 64-bit 2017-12-12 01:06:45 / mkvmerge v15.0.0 ('Duel with the Devil') 64-bit 2017-12-12 01:06:45 / UTC 2017-12-11T19:56:26Z
    FromStats_BitRate                        : 40132
    FromStats_Duration                       : 01:57:00.639000000
    FromStats_FrameCount                     : 2634
    FromStats_StreamSize                     : 35219185

    Menu
    00:00:00.000                             : :Chapter 1
    00:11:56.716                             : :Chapter 2
    00:19:45.101                             : :Chapter 3
    00:28:08.270                             : :Chapter 4
    00:35:33.506                             : :Chapter 5
    00:44:10.398                             : :Chapter 6
    00:52:21.263                             : :Chapter 7
    01:01:33.607                             : :Chapter 8
    01:11:40.087                             : :Chapter 9
    01:20:39.168                             : :Chapter 10
    01:27:35.292                             : :Chapter 11
    01:36:29.575                             : :Chapter 12
    01:44:34.268                             : :Chapter 13
    01:53:13.412                             : :Chapter 14
    01:58:19.968                             : :Chapter 15

  • Peso: 8.28 GiB

Sinopsis

Nueva entrega de la mítica saga de Star Trek, dirigida por el creador de la serie “Perdidos” (Lost), donde se cuenta cómo se conocieron el capitan Kirk y Spock. Todo está preparado para el viaje inaugural de la nave más moderna que jamás se haya creado: la USS Enterprise. Su joven tripulación tiene una importante misión: encontrar una manera de detener al malvado Nero (Eric Bana), que movido por la venganza amenaza a toda la humanidad. Pero el destino de la galaxia está en manos de dos jóvenes rivales que nacieron en mundos diferentes. Uno de ellos, Tiberio James Kirk (Chris Pine), joven de una granja de Iowa que busca emociones, es un líder nato a la búsqueda de una causa. El otro, Spock (Zachary Quinto), que creció en el planeta Vulcano, es un paria debido a su parte medio humana, lo que lo hace susceptible a la inestabilidad de las emociones de los Vulcanos.

Ficha técnica

Video trailer de la película

Enlaces de descarga

Rip de Bluray

Descargar Star Trek, El Futuro Comienza (2009) Full 1080p Latino




Aportes de DPeliculasHDmega la pass es:dpeliculashdmega.org Aportes de CinemaniaHD la pass es:eatsouthward.com

Películas relacionadas

  • Peter Rabbit (2018) 1080p Latino

    2018
    Peter Rabbit (2018) 1080p Latino

    5.0 1h 35m 2018

    Peter Rabbit no es un conejo cualquiera. Es un rebelde travieso y aventurero que viste camisa azul y...

    Director: Will Gluck

    Género: Animación

    Actores: Will Reichelt

  • Ash vs. Evil Dead (2017) Temporada 3 WEBDL Latino

    2015
    Ash vs. Evil Dead (2017) Temporada 3 WEBDL Latino

    5.0 0h 43m 2015

    Esta temporada 3 seguirá, por tanto, contando con la participación de Lucy Lawless en el papel de la...

    Director: Sam Raimi

    Género: Acción

    Actores: Ray Santiago

  • Hostiles (2017) 1080p Subtitulado

    2017
    Hostiles (2017) 1080p Subtitulado

    0.0 2h 13m 2017

    El legendario capitán del ejército Joseph J. Blocker (Christian Bale) se compromete para acompañar...

    Director: Xanthus Valan

    Género: Aventura

    Actores: Xavier Horsechief

  • Ahora los padres son ellos (2010) Full 1080p Latino

    2010
    Ahora los padres son ellos (2010) Full 1080p Latino

    5.0 1h 37m 2010

    Han tenido que pasar diez años, dos pequeños Fockers con su mujer, Pam (Polo) e incontables obstáculos...

    Director: Paul Weitz

    Género: Comedia

    Actores: Teri Polo

Comentarios 5
  • alexis - 14 diciembre, 2017

    muchas gracias gran aporte
    solo un problemilla, la contraseña no va
    y probe las dos, podrian checarlo por favor?

    • Dpelis2 - 14 diciembre, 2017

      La contraseña es eatsouthward.com todo con minuscula

      • alexis - 14 diciembre, 2017

        excelente! mil gracias.

  • Aldair Jesus - 12 diciembre, 2017

    Genial! la estaba esperando 😀

  • Logan - 12 diciembre, 2017

    Bro se extraña sus aportes en 4k son magnificos .. ojala sea nuestro regalo x navidad jjj..
    gracias hermano por subirla .. la estaba esperandoo
    saludos

-->