Son como niños 2 (2013) Full 1080p Latino

616 vistas
1 estrella2 estrellas3 estrellas4 estrellas5 estrellas (6 votos, promedio: 5,00 de 5)
Cargando…

Información de Son como niños 2 (2013) Full 1080p Latino

Datos de la película

  • Calidad: Full 1080p
  • Audio: Español Latino AC3 5.1 BLURAY - Ingles DTS 5.1 BLURAY
  • Subtitulos: Español Latino PGS - Ingles PGS
  • Resolución: 1920x1080p
  • Formato: MKV
  • Codec: H.264
  • Encoder: Dracarys
  • Mediainfo: Clic para Mostrar Datos Ver
  • Format                                   : Matroska
    Format version                           : Version 4 / Version 2
    File size                                : 5.67 GiB
    Duration                                 : 1 h 40 min
    Overall bit rate                         : 8 042 kb/s
    Movie name                               : CinemaniaHDD.com
    Encoded date                             : UTC 2018-04-06 01:34:24 / UTC 2018-03-31T17:36:25Z
    Writing application                      : mkvmerge v15.0.0 ('Duel with the Devil') 64-bit
    Writing library                          : libebml v1.3.5 + libmatroska v1.4.5 / Lavf57.7.2

    Video
    ID                                       : 1
    Format                                   : AVC
    Format/Info                              : Advanced Video Codec
    Format profile                           : [email protected]
    Format settings                          : CABAC / 4 Ref Frames
    Format settings, CABAC                   : Yes
    Format settings, RefFrames               : 4 frames
    Codec ID                                 : V_MPEG4/ISO/AVC
    Duration                                 : 1 h 40 min
    Bit rate                                 : 5 924 kb/s
    Width                                    : 1 920 pixels
    Height                                   : 1 080 pixels
    Display aspect ratio                     : 16:9
    Frame rate mode                          : Constant
    Frame rate                               : 23.976 (24000/1001) FPS
    Color space                              : YUV
    Chroma subsampling                       : 4:2:0
    Bit depth                                : 8 bits
    Scan type                                : Progressive
    Bits/(Pixel*Frame)                       : 0.119
    Stream size                              : 4.18 GiB (74%)
    Title                                    : Son como niños 2 (2013) Full 1080p Latino
    Writing library                          : x264 core 148 r2708 86b7198
    Encoding settings                        : cabac=1 / ref=4 / deblock=1:0:0 / analyse=0x3:0x133 / me=esa / subme=9 / psy=1 / psy_rd=1.00:0.00 / mixed_ref=1 / me_range=16 / chroma_me=1 / trellis=2 / 8x8dct=1 / cqm=0 / deadzone=21,11 / fast_pskip=1 / chroma_qp_offset=-2 / threads=34 / lookahead_threads=2 / sliced_threads=0 / nr=0 / decimate=1 / interlaced=0 / bluray_compat=0 / constrained_intra=0 / bframes=3 / b_pyramid=2 / b_adapt=2 / b_bias=0 / direct=3 / weightb=1 / open_gop=0 / weightp=2 / keyint=240 / keyint_min=24 / scenecut=40 / intra_refresh=0 / rc_lookahead=60 / rc=crf / mbtree=1 / crf=20.0 / qcomp=0.60 / qpmin=0 / qpmax=69 / qpstep=4 / vbv_maxrate=62500 / vbv_bufsize=78125 / crf_max=0.0 / nal_hrd=none / filler=0 / ip_ratio=1.40 / aq=1:1.00
    Language                                 : English
    Default                                  : Yes
    Forced                                   : No
    Color range                              : Limited
    Color primaries                          : BT.709
    Transfer characteristics                 : BT.709
    Matrix coefficients                      : BT.709
    Statistics Tags Issue                    : mkvmerge v15.0.0 ('Duel with the Devil') 64-bit 2018-04-06 01:34:24 / mkvmerge v15.0.0 ('Duel with the Devil') 64-bit 2018-04-06 01:34:24 / UTC 2018-03-31T17:36:25Z
    FromStats_BitRate                        : 6056235
    FromStats_Duration                       : 01:40:58.052000000
    FromStats_FrameCount                     : 145248
    FromStats_StreamSize                     : 4586123991

    Audio #1
    ID                                       : 2
    Format                                   : AC-3
    Format/Info                              : Audio Coding 3
    Format settings, Endianness              : Big
    Codec ID                                 : A_AC3
    Duration                                 : 1 h 40 min
    Bit rate mode                            : Constant
    Bit rate                                 : 448 kb/s
    Channel(s)                               : 6 channels
    Channel positions                        : Front: L C R, Side: L R, LFE
    Sampling rate                            : 48.0 kHz
    Frame rate                               : 31.250 FPS (1536 SPF)
    Bit depth                                : 16 bits
    Compression mode                         : Lossy
    Stream size                              : 324 MiB (6%)
    Language                                 : Spanish
    Service kind                             : Complete Main
    Default                                  : Yes
    Forced                                   : No
    Statistics Tags Issue                    : mkvmerge v15.0.0 ('Duel with the Devil') 64-bit 2018-04-06 01:34:24 / mkvmerge v15.0.0 ('Duel with the Devil') 64-bit 2018-04-06 01:34:24 / UTC 2018-03-31T17:36:25Z
    FromStats_BitRate                        : 448000
    FromStats_Duration                       : 01:40:58.048000000
    FromStats_FrameCount                     : 189314
    FromStats_StreamSize                     : 339250688

    Audio #2
    ID                                       : 3
    Format                                   : DTS
    Format/Info                              : Digital Theater Systems
    Mode                                     : 16
    Format settings, Endianness              : Big
    Codec ID                                 : A_DTS
    Duration                                 : 1 h 40 min
    Bit rate mode                            : Constant
    Bit rate                                 : 1 509 kb/s
    Channel(s)                               : 6 channels
    Channel positions                        : Front: L C R, Side: L R, LFE
    Sampling rate                            : 48.0 kHz
    Frame rate                               : 93.750 FPS (512 SPF)
    Bit depth                                : 16 bits
    Compression mode                         : Lossy
    Stream size                              : 1.06 GiB (19%)
    Language                                 : English
    Default                                  : No
    Forced                                   : No
    Statistics Tags Issue                    : mkvmerge v15.0.0 ('Duel with the Devil') 64-bit 2018-04-06 01:34:24 / mkvmerge v15.0.0 ('Duel with the Devil') 64-bit 2018-04-06 01:34:24 / UTC 2018-03-31T17:36:25Z
    FromStats_BitRate                        : 1509000
    FromStats_Duration                       : 01:40:58.048000000
    FromStats_FrameCount                     : 567942
    FromStats_StreamSize                     : 1142699304

    Text #1
    ID                                       : 4
    Format                                   : PGS
    Muxing mode                              : zlib
    Codec ID                                 : S_HDMV/PGS
    Codec ID/Info                            : Picture based subtitle format used on BDs/HD-DVDs
    Language                                 : English
    Default                                  : No
    Forced                                   : No
    Statistics Tags Issue                    : mkvmerge v15.0.0 ('Duel with the Devil') 64-bit 2018-04-06 01:34:24 / mkvmerge v15.0.0 ('Duel with the Devil') 64-bit 2018-04-06 01:34:24 / UTC 2018-03-31T17:36:25Z
    FromStats_BitRate                        : 49652
    FromStats_Duration                       : 01:33:12.253000000
    FromStats_FrameCount                     : 4378
    FromStats_StreamSize                     : 34708779

    Text #2
    ID                                       : 5
    Format                                   : PGS
    Muxing mode                              : zlib
    Codec ID                                 : S_HDMV/PGS
    Codec ID/Info                            : Picture based subtitle format used on BDs/HD-DVDs
    Language                                 : Spanish
    Default                                  : No
    Forced                                   : No
    Statistics Tags Issue                    : mkvmerge v15.0.0 ('Duel with the Devil') 64-bit 2018-04-06 01:34:24 / mkvmerge v15.0.0 ('Duel with the Devil') 64-bit 2018-04-06 01:34:24 / UTC 2018-03-31T17:36:25Z
    FromStats_BitRate                        : 47389
    FromStats_Duration                       : 01:33:49.791000000
    FromStats_FrameCount                     : 3785
    FromStats_StreamSize                     : 33349118

    Menu
    00:00:00.000                             : :Chapter 1
    00:04:30.687                             : :Chapter 2
    00:12:02.555                             : :Chapter 3
    00:18:14.594                             : :Chapter 4
    00:25:34.116                             : :Chapter 5
    00:29:47.661                             : :Chapter 6
    00:37:02.387                             : :Chapter 7
    00:45:15.671                             : :Chapter 8
    00:48:53.431                             : :Chapter 9
    00:54:22.593                             : :Chapter 10
    01:00:49.354                             : :Chapter 11
    01:05:15.662                             : :Chapter 12
    01:10:52.415                             : :Chapter 13
    01:16:49.355                             : :Chapter 14
    01:23:26.752                             : :Chapter 15
    01:31:02.624                             : :Chapter 16

  • Peso: 5.67 GiB

Sinopsis

Lenny se ha trasladado con su familia a la pequeña ciudad donde tanto él como sus amigos se criaron. En esta ocasión, los adultos serán quienes reciban toda una lección de sus propios hijos.

Ficha técnica

  • Titulo original: Grown Ups 2
  • Fecha de lanzamiento: 11-07-2013 (United States of America)
  • Director: Dennis Dugan
  • Género: Comedia, FULL 1080p Plateadas
  • Puntuación: 5.0 6 votos
  • Duración:
    1h 40m

Video trailer de la película

Enlaces de descarga

Rip de Bluray

Descargar Son como niños 2 (2013) Full 1080p Latino




Aportes de DPeliculasHDmega la pass es:dpeliculashdmega.org Aportes de CinemaniaHD la pass es:eatsouthward.com
Guardado en : Comedia , FULL 1080p Plateadas

Películas relacionadas

  • Niños del hombre (2006) Full 1080p Latino

    2006
    Niños del hombre (2006) Full 1080p Latino

    0.0 1 h 49 min 2006

    Año 2027: el ser humano está al borde de la extinción: los hombres han perdido la capacidad de procrear...

    Director: Terry Needham

    Género: Acción

    Actores: Yolanda Vazquez

  • Para atrapar al ladrón (1955) Full 1080p Latino

    1955
    Para atrapar al ladrón (1955) Full 1080p Latino

    0.0 1h 46m 1955

    A pesar de que John Robie "El Gato" (Cary Grant) es un ladrón de joyas reformado, se convierte en el...

    Director: Alfred Hitchcock

    Género: Crimen

    Actores: William 'Wee Willie' Davis

  • Si decido quedarme (2014) Full 1080p Latino

    2014
    Si decido quedarme (2014) Full 1080p Latino

    5.0 1 h 46 min 2014

    Mia es una joven de 17 años que parece tenerlo todo en la vida: una famila adorable, un novio que la...

    Director: R.J. Cutler

    Género: Drama

    Actores: William C. Vaughan

  • Dude (2018) NF 1080p Latino

    2018
    Dude (2018) NF 1080p Latino

    5.0 1h 30m 2018

    Cuatro mejores amigas se tienen que enfrentar a su nueva vida. Las dos últimas semanas de instituto...

    Director: Olivia Milch

    Género: Comedia

    Actores: Sydney Lucas

Comentarios 0
-->