Sin salida (2015) Full 1080p Latino

1.057 vistas
1 estrella2 estrellas3 estrellas4 estrellas5 estrellas (Ninguna valoración todavía)
Cargando…

Información de Sin salida (2015) Full 1080p Latino

Datos de la película

  • Calidad: Full 1080p
  • Audio: Español Latino AC3 5.1 BLURAY - Ingles DTS 5.1 BLURAY
  • Subtitulos: Español Latino PGS - Ingles PGS
  • Resolución: 1920X1080p
  • Formato: MKV
  • Codec: H.264
  • Encoder: Dracarys
  • Mediainfo: Clic para Mostrar Datos Ver
  • Format                                   : Matroska
    Format version                           : Version 4 / Version 2
    File size                                : 5.16 GiB
    Duration                                 : 1 h 43 min
    Overall bit rate                         : 7 156 kb/s
    Movie name                               : CinemaniaHDD.com
    Encoded date                             : UTC 2017-12-27 00:11:29 / UTC 2017-12-23T11:31:44Z
    Writing application                      : mkvmerge v15.0.0 ('Duel with the Devil') 64-bit
    Writing library                          : libebml v1.3.5 + libmatroska v1.4.5 / Lavf57.7.2

    Video
    ID                                       : 1
    Format                                   : AVC
    Format/Info                              : Advanced Video Codec
    Format profile                           : [email protected]
    Format settings                          : CABAC / 4 Ref Frames
    Format settings, CABAC                   : Yes
    Format settings, RefFrames               : 4 frames
    Codec ID                                 : V_MPEG4/ISO/AVC
    Duration                                 : 1 h 43 min
    Bit rate                                 : 5 057 kb/s
    Width                                    : 1 920 pixels
    Height                                   : 1 080 pixels
    Display aspect ratio                     : 16:9
    Frame rate mode                          : Constant
    Frame rate                               : 23.976 (24000/1001) FPS
    Color space                              : YUV
    Chroma subsampling                       : 4:2:0
    Bit depth                                : 8 bits
    Scan type                                : Progressive
    Bits/(Pixel*Frame)                       : 0.102
    Stream size                              : 3.65 GiB (71%)
    Title                                    : Sin salida (2015) Full 1080p Latino
    Writing library                          : x264 core 148 r2708 86b7198
    Encoding settings                        : cabac=1 / ref=4 / deblock=1:0:0 / analyse=0x3:0x133 / me=esa / subme=10 / psy=1 / psy_rd=1.00:0.00 / mixed_ref=1 / me_range=24 / chroma_me=1 / trellis=2 / 8x8dct=1 / cqm=0 / deadzone=21,11 / fast_pskip=1 / chroma_qp_offset=-2 / threads=34 / lookahead_threads=5 / sliced_threads=0 / nr=0 / decimate=1 / interlaced=0 / bluray_compat=0 / constrained_intra=0 / bframes=8 / b_pyramid=2 / b_adapt=2 / b_bias=0 / direct=3 / weightb=1 / open_gop=0 / weightp=2 / keyint=240 / keyint_min=24 / scenecut=40 / intra_refresh=0 / rc_lookahead=60 / rc=crf / mbtree=1 / crf=20.0 / qcomp=0.60 / qpmin=0 / qpmax=69 / qpstep=4 / vbv_maxrate=62500 / vbv_bufsize=78125 / crf_max=0.0 / nal_hrd=none / filler=0 / ip_ratio=1.40 / aq=1:1.00
    Language                                 : English
    Default                                  : Yes
    Forced                                   : No
    Color range                              : Limited
    Color primaries                          : BT.709
    Transfer characteristics                 : BT.709
    Matrix coefficients                      : BT.709
    Statistics Tags Issue                    : mkvmerge v15.0.0 ('Duel with the Devil') 64-bit 2017-12-27 00:11:29 / mkvmerge v15.0.0 ('Duel with the Devil') 64-bit 2017-12-27 00:11:29 / UTC 2017-12-23T11:31:44Z
    FromStats_BitRate                        : 5186186
    FromStats_Duration                       : 01:43:06.681000000
    FromStats_FrameCount                     : 148332
    FromStats_StreamSize                     : 4010660393

    Audio #1
    ID                                       : 2
    Format                                   : AC-3
    Format/Info                              : Audio Coding 3
    Format settings, Endianness              : Big
    Codec ID                                 : A_AC3
    Duration                                 : 1 h 43 min
    Bit rate mode                            : Constant
    Bit rate                                 : 448 kb/s
    Channel(s)                               : 6 channels
    Channel positions                        : Front: L C R, Side: L R, LFE
    Sampling rate                            : 48.0 kHz
    Frame rate                               : 31.250 FPS (1536 SPF)
    Bit depth                                : 16 bits
    Compression mode                         : Lossy
    Stream size                              : 331 MiB (6%)
    Language                                 : Spanish
    Service kind                             : Complete Main
    Default                                  : Yes
    Forced                                   : No
    Statistics Tags Issue                    : mkvmerge v15.0.0 ('Duel with the Devil') 64-bit 2017-12-27 00:11:29 / mkvmerge v15.0.0 ('Duel with the Devil') 64-bit 2017-12-27 00:11:29 / UTC 2017-12-23T11:31:44Z
    FromStats_BitRate                        : 448000
    FromStats_Duration                       : 01:43:13.984000000
    FromStats_FrameCount                     : 193562
    FromStats_StreamSize                     : 346863104

    Audio #2
    ID                                       : 3
    Format                                   : DTS
    Format/Info                              : Digital Theater Systems
    Mode                                     : 16
    Format settings, Endianness              : Big
    Codec ID                                 : A_DTS
    Duration                                 : 1 h 43 min
    Bit rate mode                            : Constant
    Bit rate                                 : 1 509 kb/s
    Channel(s)                               : 6 channels
    Channel positions                        : Front: L C R, Side: L R, LFE
    Sampling rate                            : 48.0 kHz
    Frame rate                               : 93.750 FPS (512 SPF)
    Bit depth                                : 24 bits
    Compression mode                         : Lossy
    Stream size                              : 1.09 GiB (21%)
    Language                                 : Spanish
    Default                                  : No
    Forced                                   : No
    Statistics Tags Issue                    : mkvmerge v15.0.0 ('Duel with the Devil') 64-bit 2017-12-27 00:11:29 / mkvmerge v15.0.0 ('Duel with the Devil') 64-bit 2017-12-27 00:11:29 / UTC 2017-12-23T11:31:44Z
    FromStats_BitRate                        : 1508999
    FromStats_Duration                       : 01:43:06.806000000
    FromStats_FrameCount                     : 580013
    FromStats_StreamSize                     : 1166986156

    Text #1
    ID                                       : 4
    Format                                   : PGS
    Muxing mode                              : zlib
    Codec ID                                 : S_HDMV/PGS
    Codec ID/Info                            : Picture based subtitle format used on BDs/HD-DVDs
    Language                                 : English
    Default                                  : No
    Forced                                   : No
    Statistics Tags Issue                    : mkvmerge v15.0.0 ('Duel with the Devil') 64-bit 2017-12-27 00:11:29 / mkvmerge v15.0.0 ('Duel with the Devil') 64-bit 2017-12-27 00:11:29 / UTC 2017-12-23T11:31:44Z
    FromStats_BitRate                        : 36691
    FromStats_Duration                       : 01:36:24.821000000
    FromStats_FrameCount                     : 2438
    FromStats_StreamSize                     : 26531416

    Text #2
    ID                                       : 5
    Format                                   : PGS
    Muxing mode                              : zlib
    Codec ID                                 : S_HDMV/PGS
    Codec ID/Info                            : Picture based subtitle format used on BDs/HD-DVDs
    Language                                 : Spanish
    Default                                  : No
    Forced                                   : No
    Statistics Tags Issue                    : mkvmerge v15.0.0 ('Duel with the Devil') 64-bit 2017-12-27 00:11:29 / mkvmerge v15.0.0 ('Duel with the Devil') 64-bit 2017-12-27 00:11:29 / UTC 2017-12-23T11:31:44Z
    FromStats_BitRate                        : 28486
    FromStats_Duration                       : 01:35:25.803000000
    FromStats_FrameCount                     : 2126
    FromStats_StreamSize                     : 20388764

    Menu
    00:00:00.000                             : :00:00:00.000
    00:04:10.083                             : :00:04:10.041
    00:10:57.907                             : :00:10:57.866
    00:18:40.745                             : :00:18:40.703
    00:25:31.447                             : :00:25:31.447
    00:34:40.787                             : :00:34:40.787
    00:40:04.444                             : :00:40:04.360
    00:46:11.310                             : :00:46:11.310
    00:52:06.498                             : :00:52:06.498
    00:57:36.870                             : :00:57:36.828
    01:03:55.874                             : :01:03:55.790
    01:11:22.528                             : :01:11:22.487
    01:18:58.692                             : :01:18:58.651
    01:25:01.513                             : :01:25:01.471
    01:31:11.508                             : :01:31:11.383
    01:37:39.062                             : :01:37:38.978

     

  • Peso: 5.16 GiB

Sinopsis

En su casa en un país del Sudeste Asiático, una familia estadounidense se encuentra atrapada en medio de un violento golpe de Estado. Desesperadamente intentarán escapar de un ambiente en el que los extranjeros, como ellos, son inmediatamente ejecutados.

Ficha técnica

Video trailer de la película

Enlaces de descarga

Rip de Bluray

Descargar Sin salida (2015) Full 1080p Latino




Aportes de DPeliculasHDmega la pass es:dpeliculashdmega.org Aportes de CinemaniaHD la pass es:eatsouthward.com

Películas relacionadas

  • Bushwick (2017) 1080p Latino

    2017
    Bushwick (2017) 1080p Latino

    5.0 1h 34m 2017

    Cuando Lucy sale del metro en Bushwick, el último barrio de moda de Nueva York, no encuentra ni hipsters...

    Director: Jonathan Milott

    Género: Acción

    Actores: Myra Lucretia Taylor

  • Gun shy (2017) 1080p Latino

    2017
    Gun shy (2017) 1080p Latino

    0.0 1h 31m 2017

    Basada en la novela homónima de Mark Haskell Smith. Turk Henry es una antigua estrella de rock con sobrepeso...

    Director: Simon West

    Género: Acción

    Actores: Sebastián Apiolaza

  • Deep Blue Sea 2 (2018) 1080p Latino

    2018
    Deep Blue Sea 2 (2018) 1080p Latino

    5.0 1h 34m 2018

    La Doctora Misty Calhoun, conservacionista de tiburones, es invitada para asesorar un proyecto secreto...

    Director: Darin Scott

    Género: Acción

    Actores: Rob Mayes

  • Maze Runner prueba de fuego (2015) Full 1080p Latino

    2015
    Maze Runner prueba de fuego (2015) Full 1080p Latino

    5.0 2 h 11 min 2015

    En este nuevo capítulo de la trepidante saga "El Corredor del Laberinto", Thomas (Dylan O'Brien) y el...

    Director: Wes Ball

    Género: Acción

    Actores: Thomas Brodie-Sangster

  • Maze Runner correr o morir (2014) Full 1080p Latino

    2014
    Maze Runner correr o morir (2014) Full 1080p Latino

    5.0 1 h 53 min 2014

    Thomas abre los ojos y se da cuenta que está en un ascensor. Lo extraño es que no recuerda nada, ni...

    Director: Wes Ball

    Género: Acción

    Actores: Will Poulter

Comentarios 0
-->