Shanghai Noon (2000) Full 1080p Latino

1.002 vistas
1 estrella2 estrellas3 estrellas4 estrellas5 estrellas (Ninguna valoración todavía)
Cargando…

Información de Shanghai Noon (2000) Full 1080p Latino

Datos de la película

  • Calidad: Full 1080p
  • Audio: Español Latino AC3 5.1 BLURAY - Ingles AC3 5.1 BLURAY
  • Subtitulos: Español Latino PGS - Ingles PGS
  • Resolución: 1920X1080p
  • Formato: MKV
  • Codec: H.264
  • Encoder: CinemaniaHD
  • Mediainfo: Clic para Mostrar Datos Ver
  • Format                                   : Matroska
    Format version                           : Version 4 / Version 2
    File size                                : 11.8 GiB
    Duration                                 : 1 h 50 min
    Overall bit rate                         : 15.4 Mb/s
    Movie name                               : CinemaniaHDD.com
    Encoded date                             : UTC 2017-12-29 02:27:14 / UTC 2017-12-28T08:24:51Z
    Writing application                      : mkvmerge v15.0.0 ('Duel with the Devil') 64-bit
    Writing library                          : libebml v1.3.5 + libmatroska v1.4.5 / Lavf57.7.2

    Video
    ID                                       : 1
    Format                                   : AVC
    Format/Info                              : Advanced Video Codec
    Format profile                           : [email protected]
    Format settings                          : CABAC / 4 Ref Frames
    Format settings, CABAC                   : Yes
    Format settings, RefFrames               : 4 frames
    Codec ID                                 : V_MPEG4/ISO/AVC
    Duration                                 : 1 h 50 min
    Bit rate                                 : 13.8 Mb/s
    Width                                    : 1 920 pixels
    Height                                   : 1 080 pixels
    Display aspect ratio                     : 16:9
    Frame rate mode                          : Constant
    Frame rate                               : 23.976 (24000/1001) FPS
    Color space                              : YUV
    Chroma subsampling                       : 4:2:0
    Bit depth                                : 8 bits
    Scan type                                : Progressive
    Bits/(Pixel*Frame)                       : 0.277
    Stream size                              : 10.6 GiB (90%)
    Title                                    : Shanghai Noon (2000) Full 1080p Latino
    Writing library                          : x264 core 148 r2708 86b7198
    Encoding settings                        : cabac=1 / ref=4 / deblock=1:0:0 / analyse=0x3:0x133 / me=esa / subme=10 / psy=1 / psy_rd=1.00:0.00 / mixed_ref=1 / me_range=24 / chroma_me=1 / trellis=2 / 8x8dct=1 / cqm=0 / deadzone=21,11 / fast_pskip=1 / chroma_qp_offset=-2 / threads=34 / lookahead_threads=5 / sliced_threads=0 / nr=0 / decimate=1 / interlaced=0 / bluray_compat=0 / constrained_intra=0 / bframes=8 / b_pyramid=2 / b_adapt=2 / b_bias=0 / direct=3 / weightb=1 / open_gop=0 / weightp=2 / keyint=240 / keyint_min=24 / scenecut=40 / intra_refresh=0 / rc_lookahead=60 / rc=crf / mbtree=1 / crf=20.0 / qcomp=0.60 / qpmin=0 / qpmax=69 / qpstep=4 / vbv_maxrate=62500 / vbv_bufsize=78125 / crf_max=0.0 / nal_hrd=none / filler=0 / ip_ratio=1.40 / aq=1:1.00
    Language                                 : English
    Default                                  : Yes
    Forced                                   : No
    Color range                              : Limited
    Color primaries                          : BT.709
    Transfer characteristics                 : BT.709
    Matrix coefficients                      : BT.709
    Statistics Tags Issue                    : mkvmerge v15.0.0 ('Duel with the Devil') 64-bit 2017-12-29 02:27:14 / mkvmerge v15.0.0 ('Duel with the Devil') 64-bit 2017-12-29 02:27:14 / UTC 2017-12-28T08:24:51Z
    FromStats_BitRate                        : 14056816
    FromStats_Duration                       : 01:50:17.611000000
    FromStats_FrameCount                     : 158664
    FromStats_StreamSize                     : 11627817804

    Audio #1
    ID                                       : 2
    Format                                   : AC-3
    Format/Info                              : Audio Coding 3
    Format settings, Endianness              : Big
    Codec ID                                 : A_AC3
    Duration                                 : 1 h 50 min
    Bit rate mode                            : Constant
    Bit rate                                 : 640 kb/s
    Channel(s)                               : 6 channels
    Channel positions                        : Front: L C R, Side: L R, LFE
    Sampling rate                            : 48.0 kHz
    Frame rate                               : 31.250 FPS (1536 SPF)
    Bit depth                                : 16 bits
    Compression mode                         : Lossy
    Stream size                              : 505 MiB (4%)
    Language                                 : Spanish
    Service kind                             : Complete Main
    Default                                  : Yes
    Forced                                   : No
    Statistics Tags Issue                    : mkvmerge v15.0.0 ('Duel with the Devil') 64-bit 2017-12-29 02:27:14 / mkvmerge v15.0.0 ('Duel with the Devil') 64-bit 2017-12-29 02:27:14 / UTC 2017-12-28T08:24:51Z
    FromStats_BitRate                        : 640000
    FromStats_Duration                       : 01:50:17.632000000
    FromStats_FrameCount                     : 206801
    FromStats_StreamSize                     : 529410560

    Audio #2
    ID                                       : 3
    Format                                   : AC-3
    Format/Info                              : Audio Coding 3
    Format settings, Endianness              : Big
    Codec ID                                 : A_AC3
    Duration                                 : 1 h 50 min
    Bit rate mode                            : Constant
    Bit rate                                 : 640 kb/s
    Channel(s)                               : 6 channels
    Channel positions                        : Front: L C R, Side: L R, LFE
    Sampling rate                            : 48.0 kHz
    Frame rate                               : 31.250 FPS (1536 SPF)
    Bit depth                                : 16 bits
    Compression mode                         : Lossy
    Stream size                              : 505 MiB (4%)
    Language                                 : English
    Service kind                             : Complete Main
    Default                                  : No
    Forced                                   : No
    Statistics Tags Issue                    : mkvmerge v15.0.0 ('Duel with the Devil') 64-bit 2017-12-29 02:27:14 / mkvmerge v15.0.0 ('Duel with the Devil') 64-bit 2017-12-29 02:27:14 / UTC 2017-12-28T08:24:51Z
    FromStats_BitRate                        : 640000
    FromStats_Duration                       : 01:50:17.632000000
    FromStats_FrameCount                     : 206801
    FromStats_StreamSize                     : 529410560

    Text #1
    ID                                       : 4
    Format                                   : PGS
    Muxing mode                              : zlib
    Codec ID                                 : S_HDMV/PGS
    Codec ID/Info                            : Picture based subtitle format used on BDs/HD-DVDs
    Language                                 : Spanish
    Default                                  : No
    Forced                                   : No
    Statistics Tags Issue                    : mkvmerge v15.0.0 ('Duel with the Devil') 64-bit 2017-12-29 02:27:14 / mkvmerge v15.0.0 ('Duel with the Devil') 64-bit 2017-12-29 02:27:14 / UTC 2017-12-28T08:24:51Z
    FromStats_BitRate                        : 25961
    FromStats_Duration                       : 01:44:07.241000000
    FromStats_FrameCount                     : 1930
    FromStats_StreamSize                     : 20273690

    Text #2
    ID                                       : 5
    Format                                   : PGS
    Muxing mode                              : zlib
    Codec ID                                 : S_HDMV/PGS
    Codec ID/Info                            : Picture based subtitle format used on BDs/HD-DVDs
    Language                                 : English
    Default                                  : No
    Forced                                   : No
    Statistics Tags Issue                    : mkvmerge v15.0.0 ('Duel with the Devil') 64-bit 2017-12-29 02:27:14 / mkvmerge v15.0.0 ('Duel with the Devil') 64-bit 2017-12-29 02:27:14 / UTC 2017-12-28T08:24:51Z
    FromStats_BitRate                        : 33053
    FromStats_Duration                       : 01:45:31.117000000
    FromStats_FrameCount                     : 2512
    FromStats_StreamSize                     : 26158558

    Menu
    00:00:00.000                             : :Chapter 1
    00:04:32.439                             : :Chapter 2
    00:06:12.914                             : :Chapter 3
    00:15:02.318                             : :Chapter 4
    00:17:35.930                             : :Chapter 5
    00:21:13.272                             : :Chapter 6
    00:25:57.973                             : :Chapter 7
    00:30:31.288                             : :Chapter 8
    00:31:55.831                             : :Chapter 9
    00:38:46.199                             : :Chapter 10
    00:47:25.760                             : :Chapter 11
    00:53:10.479                             : :Chapter 12
    01:03:08.827                             : :Chapter 13
    01:10:30.059                             : :Chapter 14
    01:12:53.870                             : :Chapter 15
    01:15:15.011                             : :Chapter 16
    01:17:24.390                             : :Chapter 17
    01:19:54.832                             : :Chapter 18
    01:21:49.488                             : :Chapter 19
    01:23:40.557                             : :Chapter 20
    01:26:12.125                             : :Chapter 21
    01:29:32.951                             : :Chapter 22
    01:33:43.368                             : :Chapter 23
    01:35:21.132                             : :Chapter 24
    01:36:44.757                             : :Chapter 25
    01:40:31.943                             : :Chapter 26
    01:42:05.953                             : :Chapter 27
    01:43:24.907                             : :Chapter 28

     

  • Peso: 11.8 GiB

Sinopsis

Chon Wang, un torpe guardia imperial, sigue la pista a la princesa Pei Pei cuando es secuestrada en la Ciudad Prohibida y llevada a América. Wang persigue a sus captores hasta Nevada, donde se le une un compañero poco recomendable y trata de liberar a la princesa de su prisión.

Ficha técnica

Video trailer de la película

Enlaces de descarga

Rip de Bluray

Descargar Shanghai Noon (2000) Full 1080p Latino




Aportes de DPeliculasHDmega la pass es:dpeliculashdmega.org Aportes de CinemaniaHD la pass es:eatsouthward.com

Películas relacionadas

  • Batman Ninja (2018) WEB-DL 1080p Latino

    2018
    Batman Ninja (2018) WEB-DL 1080p Latino

    5.0 1h 25m 2018

    Batman, junto a sus aliados y enemigos, se ve transportado desde la moderna Gotham hasta el Japón feudal....

    Director: Junpei Mizusaki

    Género: Acción

    Actores: Yuuki Kaji

  • Niños del hombre (2006) Full 1080p Latino

    2006
    Niños del hombre (2006) Full 1080p Latino

    0.0 1 h 49 min 2006

    Año 2027: el ser humano está al borde de la extinción: los hombres han perdido la capacidad de procrear...

    Director: Terry Needham

    Género: Acción

    Actores: Yolanda Vazquez

  • Unlocked (2017) 1080p Latino

    2017
    Unlocked (2017) 1080p Latino

    3.0 1h 43m 2017

    Gira en torno a una agente de la CIA, especializada en interrogatorios, que es engañada por un sospechoso,...

    Director: Vera Homolacova

    Género: Acción

    Actores: Tosin Cole

  • Para atrapar al ladrón (1955) Full 1080p Latino

    1955
    Para atrapar al ladrón (1955) Full 1080p Latino

    0.0 1h 46m 1955

    A pesar de que John Robie "El Gato" (Cary Grant) es un ladrón de joyas reformado, se convierte en el...

    Director: Alfred Hitchcock

    Género: Crimen

    Actores: William 'Wee Willie' Davis

Comentarios 2
  • MASSIMO Pasaca - 03 enero, 2018

    Excelente las peliculas de Jackie Chan, me las bajo todas. Eres un CRACK
    Un favor, subete la pelicula ARMAGEDOM, en BR 1080p, es genial esta pelicula con BRUCE WILLIE

    • Dpelis2 - 04 enero, 2018

      Hola Pronto Armagedon Saludos

-->