¿Que le paso a el Lunes? (2017) Full 1080p Latino

1.110 vistas
1 estrella2 estrellas3 estrellas4 estrellas5 estrellas (Ninguna valoración todavía)
Cargando…

Información de ¿Que le paso a el Lunes? (2017) Full 1080p Latino

Datos de la película

  • Calidad: Full 1080p
  • Audio: Se especifica abajo de la Sinopsis
  • Subtitulos: Español Latino SRT
  • Resolución: 1920X1080p
  • Formato: MKV
  • Codec: H.264
  • Encoder: CinemaniaHD
  • Mediainfo: Clic para Mostrar Datos Ver
  • Format                                   : Matroska
    Format version                           : Version 4 / Version 2
    File size                                : 3.75 GiB
    Duration                                 : 2 h 3 min
    Overall bit rate                         : 4 343 kb/s
    Movie name                               : CinemaniaHDD.com
    Encoded date                             : UTC 2017-12-17 04:06:20 / UTC 2017-12-17T00:02:38Z
    Writing application                      : mkvmerge v15.0.0 ('Duel with the Devil') 64-bit
    Writing library                          : libebml v1.3.5 + libmatroska v1.4.5 / Lavf57.7.2

    Video
    ID                                       : 1
    Format                                   : AVC
    Format/Info                              : Advanced Video Codec
    Format profile                           : [email protected]
    Format settings                          : CABAC / 4 Ref Frames
    Format settings, CABAC                   : Yes
    Format settings, RefFrames               : 4 frames
    Codec ID                                 : V_MPEG4/ISO/AVC
    Duration                                 : 2 h 3 min
    Bit rate                                 : 2 364 kb/s
    Width                                    : 1 920 pixels
    Height                                   : 1 080 pixels
    Display aspect ratio                     : 16:9
    Frame rate mode                          : Constant
    Frame rate                               : 24.000 FPS
    Color space                              : YUV
    Chroma subsampling                       : 4:2:0
    Bit depth                                : 8 bits
    Scan type                                : Progressive
    Bits/(Pixel*Frame)                       : 0.048
    Stream size                              : 2.04 GiB (54%)
    Title                                    : ¿Que le paso a el Lunes? (2017) Full 1080p Latino
    Writing library                          : x264 core 148 r2708 86b7198
    Encoding settings                        : cabac=1 / ref=4 / deblock=1:0:0 / analyse=0x3:0x133 / me=esa / subme=10 / psy=1 / psy_rd=1.00:0.00 / mixed_ref=1 / me_range=24 / chroma_me=1 / trellis=2 / 8x8dct=1 / cqm=0 / deadzone=21,11 / fast_pskip=1 / chroma_qp_offset=-2 / threads=34 / lookahead_threads=5 / sliced_threads=0 / nr=0 / decimate=1 / interlaced=0 / bluray_compat=0 / constrained_intra=0 / bframes=8 / b_pyramid=2 / b_adapt=2 / b_bias=0 / direct=3 / weightb=1 / open_gop=0 / weightp=2 / keyint=240 / keyint_min=24 / scenecut=40 / intra_refresh=0 / rc_lookahead=60 / rc=crf / mbtree=1 / crf=20.0 / qcomp=0.60 / qpmin=0 / qpmax=69 / qpstep=4 / vbv_maxrate=62500 / vbv_bufsize=78125 / crf_max=0.0 / nal_hrd=none / filler=0 / ip_ratio=1.40 / aq=1:1.00
    Language                                 : English
    Default                                  : Yes
    Forced                                   : No
    Color range                              : Limited
    Color primaries                          : BT.709
    Transfer characteristics                 : BT.709
    Matrix coefficients                      : BT.709
    Statistics Tags Issue                    : mkvmerge v15.0.0 ('Duel with the Devil') 64-bit 2017-12-17 04:06:20 / mkvmerge v15.0.0 ('Duel with the Devil') 64-bit 2017-12-17 04:06:20 / UTC 2017-12-17T00:02:38Z
    FromStats_BitRate                        : 2447821
    FromStats_Duration                       : 02:03:31.542000000
    FromStats_FrameCount                     : 177877
    FromStats_StreamSize                     : 2267766779

    Audio #1
    ID                                       : 2
    Format                                   : AC-3
    Format/Info                              : Audio Coding 3
    Format settings, Endianness              : Big
    Codec ID                                 : A_AC3
    Duration                                 : 2 h 3 min
    Bit rate mode                            : Constant
    Bit rate                                 : 384 kb/s
    Channel(s)                               : 6 channels
    Channel positions                        : Front: L C R, Side: L R, LFE
    Sampling rate                            : 48.0 kHz
    Frame rate                               : 31.250 FPS (1536 SPF)
    Bit depth                                : 16 bits
    Compression mode                         : Lossy
    Stream size                              : 339 MiB (9%)
    Language                                 : Spanish
    Service kind                             : Complete Main
    Default                                  : Yes
    Forced                                   : No
    Statistics Tags Issue                    : mkvmerge v15.0.0 ('Duel with the Devil') 64-bit 2017-12-17 04:06:20 / mkvmerge v15.0.0 ('Duel with the Devil') 64-bit 2017-12-17 04:06:20 / UTC 2017-12-17T00:02:38Z
    FromStats_BitRate                        : 384000
    FromStats_Duration                       : 02:03:31.552000000
    FromStats_FrameCount                     : 231611
    FromStats_StreamSize                     : 355754496

    Audio #2
    ID                                       : 3
    Format                                   : DTS
    Format/Info                              : Digital Theater Systems
    Mode                                     : 16
    Format settings, Endianness              : Big
    Codec ID                                 : A_DTS
    Duration                                 : 2 h 3 min
    Bit rate mode                            : Constant
    Bit rate                                 : 1 509 kb/s
    Channel(s)                               : 6 channels
    Channel positions                        : Front: L C R, Side: L R, LFE
    Sampling rate                            : 48.0 kHz
    Frame rate                               : 93.750 FPS (512 SPF)
    Bit depth                                : 24 bits
    Compression mode                         : Lossy
    Stream size                              : 1.30 GiB (35%)
    Language                                 : English
    Default                                  : No
    Forced                                   : No
    Statistics Tags Issue                    : mkvmerge v15.0.0 ('Duel with the Devil') 64-bit 2017-12-17 04:06:20 / mkvmerge v15.0.0 ('Duel with the Devil') 64-bit 2017-12-17 04:06:20 / UTC 2017-12-17T00:02:38Z
    FromStats_BitRate                        : 1508999
    FromStats_Duration                       : 02:03:31.542000000
    FromStats_FrameCount                     : 694832
    FromStats_StreamSize                     : 1398001984

    Text
    ID                                       : 4
    Format                                   : UTF-8
    Codec ID                                 : S_TEXT/UTF8
    Codec ID/Info                            : UTF-8 Plain Text
    Language                                 : Spanish
    Default                                  : No
    Forced                                   : No
    Statistics Tags Issue                    : mkvmerge v15.0.0 ('Duel with the Devil') 64-bit 2017-12-17 04:06:20 / mkvmerge v15.0.0 ('Duel with the Devil') 64-bit 2017-12-17 04:06:20 / UTC 2017-12-17T00:02:38Z
    FromStats_BitRate                        : 32
    FromStats_Duration                       : 01:56:40.963000000
    FromStats_FrameCount                     : 958
    FromStats_StreamSize                     : 28518

    Menu
    00:00:00.000                             : :Chapter 1
    00:09:13.667                             : :Chapter 2
    00:20:16.792                             : :Chapter 3
    00:29:12.333                             : :Chapter 4
    00:40:32.000                             : :Chapter 5
    00:51:51.750                             : :Chapter 6
    00:58:04.792                             : :Chapter 7
    01:14:19.833                             : :Chapter 8
    01:22:25.000                             : :Chapter 9
    01:32:37.958                             : :Chapter 10
    01:42:29.792                             : :Chapter 11
    01:49:55.875                             : :Chapter 12

  • Peso: 3.75 GiB

Sinopsis

La película nos llevará hasta un futuro donde las familias son obligadas a tener tan solo un único hijo debido a la superpoblación. Un grupo de siete hermanas gemelas idénticas deberá luchar contra el gobierno y contra ellas mismas cuando una de ellas desaparezca.

 

 

Audios: Latino  Netflix AC3 5.1 – Ingles- Bluray DTS 5.1

Ficha técnica

Video trailer de la película

Enlaces de descarga

Rip de Bluray

Descargar ¿Que le paso a el Lunes? (2017) Full 1080p Latino




Aportes de DPeliculasHDmega la pass es:dpeliculashdmega.org Aportes de CinemaniaHD la pass es:eatsouthward.com

Películas relacionadas

  • Hangman (2017) 1080p Latino

    2017
    Hangman (2017) 1080p Latino

    0.0 2h 0m 2017

    Archer es un detective de homicidios (Al Pacino) que se une a un detective de crímenes comunes (Urban)...

    Director: Marc Dahlstrom

    Género: Crimen

    Actores: Steve Coulter

  • Bushwick (2017) 1080p Latino

    2017
    Bushwick (2017) 1080p Latino

    5.0 1h 34m 2017

    Cuando Lucy sale del metro en Bushwick, el último barrio de moda de Nueva York, no encuentra ni hipsters...

    Director: Jonathan Milott

    Género: Acción

    Actores: Myra Lucretia Taylor

  • Deep Blue Sea 2 (2018) 1080p Latino

    2018
    Deep Blue Sea 2 (2018) 1080p Latino

    5.0 1h 34m 2018

    La Doctora Misty Calhoun, conservacionista de tiburones, es invitada para asesorar un proyecto secreto...

    Director: Darin Scott

    Género: Acción

    Actores: Rob Mayes

  • Maze Runner prueba de fuego (2015) Full 1080p Latino

    2015
    Maze Runner prueba de fuego (2015) Full 1080p Latino

    5.0 2 h 11 min 2015

    En este nuevo capítulo de la trepidante saga "El Corredor del Laberinto", Thomas (Dylan O'Brien) y el...

    Director: Wes Ball

    Género: Acción

    Actores: Thomas Brodie-Sangster

  • Maze Runner correr o morir (2014) Full 1080p Latino

    2014
    Maze Runner correr o morir (2014) Full 1080p Latino

    5.0 1 h 53 min 2014

    Thomas abre los ojos y se da cuenta que está en un ascensor. Lo extraño es que no recuerda nada, ni...

    Director: Wes Ball

    Género: Acción

    Actores: Will Poulter

Comentarios 7
  • Fernando Alvarez - 21 diciembre, 2017

    Muy buena película, recomendada 100%, hacia bastantea tiempo que no veía un film de este tipo.

    • Dpelis2 - 21 diciembre, 2017

      la verdad que si es muy buena.

  • KILLUA - 20 diciembre, 2017

    mas peso pe viejo

    • Dpelis2 - 20 diciembre, 2017

      Mas peso no es Igual a mas Calidad…

  • josue joel - 17 diciembre, 2017

    subiran DEATH NOTE la pelicula de NETFLIX?

    • Dpelis2 - 17 diciembre, 2017

      Ya esta publicada usa en buscador y la encontraras. Saludos

  • Olaf - 17 diciembre, 2017

    El nombre correcto es “¿Qué le pasó a Lunes?”, Son siete hermanas (como dice la Sinópsis) y cada una tiene el nombre de un día de la semana. Y (como dice la Sinópsis) el tema de la película es qué le pasó a la que desaparece.

-->