Puente de espías (2015) Full 1080p Latino

704 vistas
1 estrella2 estrellas3 estrellas4 estrellas5 estrellas (Ninguna valoración todavía)
Cargando…

Información de Puente de espías (2015) Full 1080p Latino

Datos de la película

  • Calidad: Full 1080p
  • Audio: Español Latino AC3 5.1 BLURAY - Ingles DTS 5.1 BLURAY
  • Subtitulos: Español Latino PGS - Ingles PGS
  • Resolución: 1920X1080p
  • Formato: MKV
  • Codec: H.264
  • Encoder: Dracarys
  • Mediainfo: Clic para Mostrar Datos Ver
  • Format                                   : Matroska
    Format version                           : Version 4 / Version 2
    File size                                : 7.58 GiB
    Duration                                 : 2 h 21 min
    Overall bit rate                         : 7 678 kb/s
    Movie name                               : CinemaniaHDD.com
    Encoded date                             : UTC 2017-12-21 00:37:10 / UTC 2017-12-20T20:18:19Z
    Writing application                      : mkvmerge v15.0.0 ('Duel with the Devil') 64-bit
    Writing library                          : libebml v1.3.5 + libmatroska v1.4.5 / Lavf57.7.2

    Video
    ID                                       : 1
    Format                                   : AVC
    Format/Info                              : Advanced Video Codec
    Format profile                           : [email protected]
    Format settings                          : CABAC / 4 Ref Frames
    Format settings, CABAC                   : Yes
    Format settings, RefFrames               : 4 frames
    Codec ID                                 : V_MPEG4/ISO/AVC
    Duration                                 : 2 h 21 min
    Bit rate                                 : 5 568 kb/s
    Width                                    : 1 920 pixels
    Height                                   : 1 080 pixels
    Display aspect ratio                     : 16:9
    Frame rate mode                          : Constant
    Frame rate                               : 23.976 (24000/1001) FPS
    Color space                              : YUV
    Chroma subsampling                       : 4:2:0
    Bit depth                                : 8 bits
    Scan type                                : Progressive
    Bits/(Pixel*Frame)                       : 0.112
    Stream size                              : 5.50 GiB (73%)
    Title                                    : Puente de espías (2015) Full 1080p Latino
    Writing library                          : x264 core 148 r2708 86b7198
    Encoding settings                        : cabac=1 / ref=4 / deblock=1:0:0 / analyse=0x3:0x133 / me=esa / subme=10 / psy=1 / psy_rd=1.00:0.00 / mixed_ref=1 / me_range=24 / chroma_me=1 / trellis=2 / 8x8dct=1 / cqm=0 / deadzone=21,11 / fast_pskip=1 / chroma_qp_offset=-2 / threads=34 / lookahead_threads=5 / sliced_threads=0 / nr=0 / decimate=1 / interlaced=0 / bluray_compat=0 / constrained_intra=0 / bframes=8 / b_pyramid=2 / b_adapt=2 / b_bias=0 / direct=3 / weightb=1 / open_gop=0 / weightp=2 / keyint=240 / keyint_min=24 / scenecut=40 / intra_refresh=0 / rc_lookahead=60 / rc=crf / mbtree=1 / crf=20.0 / qcomp=0.60 / qpmin=0 / qpmax=69 / qpstep=4 / vbv_maxrate=62500 / vbv_bufsize=78125 / crf_max=0.0 / nal_hrd=none / filler=0 / ip_ratio=1.40 / aq=1:1.00
    Default                                  : Yes
    Forced                                   : No
    Color range                              : Limited
    Color primaries                          : BT.709
    Transfer characteristics                 : BT.709
    Matrix coefficients                      : BT.709
    Statistics Tags Issue                    : mkvmerge v15.0.0 ('Duel with the Devil') 64-bit 2017-12-21 00:37:10 / mkvmerge v15.0.0 ('Duel with the Devil') 64-bit 2017-12-21 00:37:10 / UTC 2017-12-20T20:18:19Z
    FromStats_BitRate                        : 5696990
    FromStats_Duration                       : 02:21:19.638000000
    FromStats_FrameCount                     : 203308
    FromStats_StreamSize                     : 6038552203

    Audio #1
    ID                                       : 2
    Format                                   : AC-3
    Format/Info                              : Audio Coding 3
    Format settings, Endianness              : Big
    Codec ID                                 : A_AC3
    Duration                                 : 2 h 21 min
    Bit rate mode                            : Constant
    Bit rate                                 : 448 kb/s
    Channel(s)                               : 6 channels
    Channel positions                        : Front: L C R, Side: L R, LFE
    Sampling rate                            : 48.0 kHz
    Frame rate                               : 31.250 FPS (1536 SPF)
    Bit depth                                : 16 bits
    Compression mode                         : Lossy
    Stream size                              : 453 MiB (6%)
    Language                                 : Spanish
    Service kind                             : Complete Main
    Default                                  : Yes
    Forced                                   : No
    Statistics Tags Issue                    : mkvmerge v15.0.0 ('Duel with the Devil') 64-bit 2017-12-21 00:37:10 / mkvmerge v15.0.0 ('Duel with the Devil') 64-bit 2017-12-21 00:37:10 / UTC 2017-12-20T20:18:19Z
    FromStats_BitRate                        : 448000
    FromStats_Duration                       : 02:21:19.712000000
    FromStats_FrameCount                     : 264991
    FromStats_StreamSize                     : 474863872

    Audio #2
    ID                                       : 3
    Format                                   : DTS
    Format/Info                              : Digital Theater Systems
    Format profile                           : ES Matrix / Core
    Mode                                     : 16
    Format settings, Endianness              : Big
    Codec ID                                 : A_DTS
    Duration                                 : 2 h 21 min
    Bit rate mode                            : Constant
    Bit rate                                 : 1 509 kb/s
    Channel(s)                               : 7 channels / 6 channels
    Channel positions                        : Front: L C R, Side: L R, Back: C, LFE / Front: L C R, Side: L R, LFE
    Sampling rate                            : 48.0 kHz
    Frame rate                               : 93.750 FPS (512 SPF)
    Bit depth                                : 24 bits
    Compression mode                         : Lossy
    Stream size                              : 1.49 GiB (20%)
    Language                                 : English
    Default                                  : No
    Forced                                   : No
    Statistics Tags Issue                    : mkvmerge v15.0.0 ('Duel with the Devil') 64-bit 2017-12-21 00:37:10 / mkvmerge v15.0.0 ('Duel with the Devil') 64-bit 2017-12-21 00:37:10 / UTC 2017-12-20T20:18:19Z
    FromStats_BitRate                        : 1509000
    FromStats_Duration                       : 02:21:19.648000000
    FromStats_FrameCount                     : 794967
    FromStats_StreamSize                     : 1599473604

    Text #1
    ID                                       : 4
    Format                                   : PGS
    Muxing mode                              : zlib
    Codec ID                                 : S_HDMV/PGS
    Codec ID/Info                            : Picture based subtitle format used on BDs/HD-DVDs
    Language                                 : English
    Default                                  : No
    Forced                                   : No
    Statistics Tags Issue                    : mkvmerge v15.0.0 ('Duel with the Devil') 64-bit 2017-12-21 00:37:10 / mkvmerge v15.0.0 ('Duel with the Devil') 64-bit 2017-12-21 00:37:10 / UTC 2017-12-20T20:18:19Z
    FromStats_BitRate                        : 39594
    FromStats_Duration                       : 02:10:35.640000000
    FromStats_FrameCount                     : 3512
    FromStats_StreamSize                     : 38780651

    Text #2
    ID                                       : 5
    Format                                   : PGS
    Muxing mode                              : zlib
    Codec ID                                 : S_HDMV/PGS
    Codec ID/Info                            : Picture based subtitle format used on BDs/HD-DVDs
    Language                                 : Spanish
    Default                                  : No
    Forced                                   : No
    Statistics Tags Issue                    : mkvmerge v15.0.0 ('Duel with the Devil') 64-bit 2017-12-21 00:37:10 / mkvmerge v15.0.0 ('Duel with the Devil') 64-bit 2017-12-21 00:37:10 / UTC 2017-12-20T20:18:19Z
    FromStats_BitRate                        : 36388
    FromStats_Duration                       : 02:19:53.490000000
    FromStats_FrameCount                     : 3438
    FromStats_StreamSize                     : 38178710

    Menu
    00:00:00.000                             : :Chapter 1
    00:10:29.462                             : :Chapter 2
    00:17:46.482                             : :Chapter 3
    00:22:09.829                             : :Chapter 4
    00:25:27.901                             : :Chapter 5
    00:31:18.210                             : :Chapter 6
    00:37:45.722                             : :Chapter 7
    00:45:29.268                             : :Chapter 8
    00:52:36.695                             : :Chapter 9
    01:00:39.427                             : :Chapter 10
    01:07:17.867                             : :Chapter 11
    01:16:52.399                             : :Chapter 12
    01:33:55.672                             : :Chapter 13
    01:45:41.752                             : :Chapter 14
    01:56:31.193                             : :Chapter 15
    02:07:20.550                             : :Chapter 16
    02:14:18.842                             : :Chapter 17

  • Peso: 7.58 GiB

Sinopsis

Década de los 60. Estados Unidos y la Unión Soviética se encuentran en plena Guerra Fría. El 1 de mayo de 1960 un avión espía americano fue derribado por el ejército enemigo cuando sobrevolaba territorio soviético. Sorprendentemente, el piloto, Francis Gary Powers, logra escapar gracias a su paracaídas. Cuando ya se creía a salvo, es capturado por los rusos. El abogado James B. Donovan (Tom Hanks, ‘Al encuentro de Mr. Banks’) es el encargado de negociar la liberación del soldado.

Ficha técnica

Video trailer de la película

Enlaces de descarga

Rip de Bluray

Descargar Puente de espías (2015) Full 1080p Latino




Aportes de DPeliculasHDmega la pass es:dpeliculashdmega.org Aportes de CinemaniaHD la pass es:eatsouthward.com

Películas relacionadas

  • Hangman (2017) 1080p Latino

    2017
    Hangman (2017) 1080p Latino

    0.0 2h 0m 2017

    Archer es un detective de homicidios (Al Pacino) que se une a un detective de crímenes comunes (Urban)...

    Director: Marc Dahlstrom

    Género: Crimen

    Actores: Steve Coulter

  • A Ghost Story (2017) 1080p Latino

    2017
    A Ghost Story (2017) 1080p Latino

    5.0 1h 27m 2017

    Un hombre recientemente fallecido regresa a su casa como un fantasma vestido con una sábana blanca para...

    Director: David Lowery

    Género: Drama

    Actores: Yasmina Gutierrez

  • Bushwick (2017) 1080p Latino

    2017
    Bushwick (2017) 1080p Latino

    5.0 1h 34m 2017

    Cuando Lucy sale del metro en Bushwick, el último barrio de moda de Nueva York, no encuentra ni hipsters...

    Director: Jonathan Milott

    Género: Acción

    Actores: Myra Lucretia Taylor

  • Maze Runner prueba de fuego (2015) Full 1080p Latino

    2015
    Maze Runner prueba de fuego (2015) Full 1080p Latino

    5.0 2 h 11 min 2015

    En este nuevo capítulo de la trepidante saga "El Corredor del Laberinto", Thomas (Dylan O'Brien) y el...

    Director: Wes Ball

    Género: Acción

    Actores: Thomas Brodie-Sangster

  • Maze Runner correr o morir (2014) Full 1080p Latino

    2014
    Maze Runner correr o morir (2014) Full 1080p Latino

    5.0 1 h 53 min 2014

    Thomas abre los ojos y se da cuenta que está en un ascensor. Lo extraño es que no recuerda nada, ni...

    Director: Wes Ball

    Género: Acción

    Actores: Will Poulter

Comentarios 2
  • gaaq08 - 21 diciembre, 2017

    Muchas gracias por todos sus aportes. Quería consultar “el otro guardaespaldas” en plateada la tienen?. muchas gracias.

    • Dpelis2 - 21 diciembre, 2017

      Pronto. Saludos

-->