No te metas con Zohan (2008) [EXTENDED] Full 1080p Latino

644 vistas
1 estrella2 estrellas3 estrellas4 estrellas5 estrellas (6 votos, promedio: 5,00 de 5)
Cargando…

Información de No te metas con Zohan (2008) [EXTENDED] Full 1080p Latino

Datos de la película

  • Calidad: Full 1080p
  • Audio: Español Latino AC3 5.1 DVD - Ingles AC3 5.1 BLURAY
  • Subtitulos: Español Latino PGS - Ingles PGS
  • Resolución: 1920x1080p
  • Formato: MKV
  • Codec: H.264
  • Encoder: Dracarys
  • Mediainfo: Clic para Mostrar Datos Ver
  • Format                                   : Matroska
    Format version                           : Version 4 / Version 2
    File size                                : 7.60 GiB
    Duration                                 : 1 h 56 min
    Overall bit rate                         : 9 308 kb/s
    Movie name                               : CinemaniaHDD.com
    Encoded date                             : UTC 2018-04-05 02:08:00 / UTC 2018-04-04T12:40:09Z
    Writing application                      : mkvmerge v15.0.0 ('Duel with the Devil') 64-bit
    Writing library                          : libebml v1.3.5 + libmatroska v1.4.5 / Lavf57.7.2

    Video
    ID                                       : 1
    Format                                   : AVC
    Format/Info                              : Advanced Video Codec
    Format profile                           : [email protected]
    Format settings                          : CABAC / 4 Ref Frames
    Format settings, CABAC                   : Yes
    Format settings, RefFrames               : 4 frames
    Codec ID                                 : V_MPEG4/ISO/AVC
    Duration                                 : 1 h 56 min
    Bit rate                                 : 8 290 kb/s
    Width                                    : 1 920 pixels
    Height                                   : 1 080 pixels
    Display aspect ratio                     : 16:9
    Frame rate mode                          : Constant
    Frame rate                               : 23.976 (24000/1001) FPS
    Color space                              : YUV
    Chroma subsampling                       : 4:2:0
    Bit depth                                : 8 bits
    Scan type                                : Progressive
    Bits/(Pixel*Frame)                       : 0.167
    Stream size                              : 6.77 GiB (89%)
    Title                                    : No te metas con Zohan (2008) [EXTENDED] Full 1080p Latino
    Writing library                          : x264 core 148 r2708 86b7198
    Encoding settings                        : cabac=1 / ref=4 / deblock=1:0:0 / analyse=0x3:0x133 / me=esa / subme=9 / psy=1 / psy_rd=1.00:0.00 / mixed_ref=1 / me_range=16 / chroma_me=1 / trellis=2 / 8x8dct=1 / cqm=0 / deadzone=21,11 / fast_pskip=1 / chroma_qp_offset=-2 / threads=34 / lookahead_threads=2 / sliced_threads=0 / nr=0 / decimate=1 / interlaced=0 / bluray_compat=0 / constrained_intra=0 / bframes=3 / b_pyramid=2 / b_adapt=2 / b_bias=0 / direct=3 / weightb=1 / open_gop=0 / weightp=2 / keyint=240 / keyint_min=24 / scenecut=40 / intra_refresh=0 / rc_lookahead=60 / rc=crf / mbtree=1 / crf=20.0 / qcomp=0.60 / qpmin=0 / qpmax=69 / qpstep=4 / vbv_maxrate=62500 / vbv_bufsize=78125 / crf_max=0.0 / nal_hrd=none / filler=0 / ip_ratio=1.40 / aq=1:1.00
    Language                                 : English
    Default                                  : Yes
    Forced                                   : No
    Color range                              : Limited
    Color primaries                          : BT.709
    Transfer characteristics                 : BT.709
    Matrix coefficients                      : BT.709
    Statistics Tags Issue                    : mkvmerge v15.0.0 ('Duel with the Devil') 64-bit 2018-04-05 02:08:00 / mkvmerge v15.0.0 ('Duel with the Devil') 64-bit 2018-04-05 02:08:00 / UTC 2018-04-04T12:40:09Z
    FromStats_BitRate                        : 8435243
    FromStats_Duration                       : 01:56:53.840000000
    FromStats_FrameCount                     : 168164
    FromStats_StreamSize                     : 7395430604

    Audio #1
    ID                                       : 2
    Format                                   : AC-3
    Format/Info                              : Audio Coding 3
    Format settings, Endianness              : Big
    Codec ID                                 : A_AC3
    Duration                                 : 1 h 56 min
    Bit rate mode                            : Constant
    Bit rate                                 : 384 kb/s
    Channel(s)                               : 6 channels
    Channel positions                        : Front: L C R, Side: L R, LFE
    Sampling rate                            : 48.0 kHz
    Frame rate                               : 31.250 FPS (1536 SPF)
    Bit depth                                : 16 bits
    Compression mode                         : Lossy
    Delay relative to video                  : 170 ms
    Stream size                              : 321 MiB (4%)
    Language                                 : Spanish
    Service kind                             : Complete Main
    Default                                  : Yes
    Forced                                   : No
    Statistics Tags Issue                    : mkvmerge v15.0.0 ('Duel with the Devil') 64-bit 2018-04-05 02:08:00 / mkvmerge v15.0.0 ('Duel with the Devil') 64-bit 2018-04-05 02:08:00 / UTC 2018-04-04T12:40:09Z
    FromStats_BitRate                        : 384000
    FromStats_Duration                       : 01:55:46.816000000
    FromStats_FrameCount                     : 217088
    FromStats_StreamSize                     : 333447168

    Audio #2
    ID                                       : 3
    Format                                   : AC-3
    Format/Info                              : Audio Coding 3
    Format settings, Endianness              : Big
    Codec ID                                 : A_AC3
    Duration                                 : 1 h 56 min
    Bit rate mode                            : Constant
    Bit rate                                 : 448 kb/s
    Channel(s)                               : 6 channels
    Channel positions                        : Front: L C R, Side: L R, LFE
    Sampling rate                            : 48.0 kHz
    Frame rate                               : 31.250 FPS (1536 SPF)
    Bit depth                                : 16 bits
    Compression mode                         : Lossy
    Stream size                              : 375 MiB (5%)
    Language                                 : English
    Service kind                             : Complete Main
    Default                                  : No
    Forced                                   : No
    Statistics Tags Issue                    : mkvmerge v15.0.0 ('Duel with the Devil') 64-bit 2018-04-05 02:08:00 / mkvmerge v15.0.0 ('Duel with the Devil') 64-bit 2018-04-05 02:08:00 / UTC 2018-04-04T12:40:09Z
    FromStats_BitRate                        : 448000
    FromStats_Duration                       : 01:56:53.920000000
    FromStats_FrameCount                     : 219185
    FromStats_StreamSize                     : 392779520

    Text #1
    ID                                       : 4
    Format                                   : PGS
    Muxing mode                              : zlib
    Codec ID                                 : S_HDMV/PGS
    Codec ID/Info                            : Picture based subtitle format used on BDs/HD-DVDs
    Language                                 : English
    Default                                  : No
    Forced                                   : No
    Statistics Tags Issue                    : mkvmerge v15.0.0 ('Duel with the Devil') 64-bit 2018-04-05 02:08:00 / mkvmerge v15.0.0 ('Duel with the Devil') 64-bit 2018-04-05 02:08:00 / UTC 2018-04-04T12:40:09Z
    FromStats_BitRate                        : 42592
    FromStats_Duration                       : 01:48:04.626000000
    FromStats_FrameCount                     : 3284
    FromStats_StreamSize                     : 34524688

    Text #2
    ID                                       : 5
    Format                                   : PGS
    Muxing mode                              : zlib
    Codec ID                                 : S_HDMV/PGS
    Codec ID/Info                            : Picture based subtitle format used on BDs/HD-DVDs
    Language                                 : Spanish
    Default                                  : Yes
    Forced                                   : No
    Statistics Tags Issue                    : mkvmerge v15.0.0 ('Duel with the Devil') 64-bit 2018-04-05 02:08:00 / mkvmerge v15.0.0 ('Duel with the Devil') 64-bit 2018-04-05 02:08:00 / UTC 2018-04-04T12:40:09Z
    FromStats_BitRate                        : 61082
    FromStats_Duration                       : 01:44:59.383000000
    FromStats_FrameCount                     : 3066
    FromStats_StreamSize                     : 48098010

    Menu
    00:00:00.000                             : :Chapter 1
    00:07:48.134                             : :Chapter 2
    00:13:38.609                             : :Chapter 3
    00:19:05.186                             : :Chapter 4
    00:28:13.108                             : :Chapter 5
    00:34:19.599                             : :Chapter 6
    00:41:51.300                             : :Chapter 7
    00:47:52.036                             : :Chapter 8
    00:54:42.029                             : :Chapter 9
    01:02:44.511                             : :Chapter 10
    01:10:46.534                             : :Chapter 11
    01:18:20.613                             : :Chapter 12
    01:26:10.791                             : :Chapter 13
    01:31:58.138                             : :Chapter 14
    01:39:24.959                             : :Chapter 15
    01:48:41.890                             : :Chapter 16

  • Peso: 7.60 GiB

Sinopsis

Zohan, un peculiar y muy competente agente israelí de los servicios secretos del Mossad, finge su muerte para poder trasladarse de Israel a Nueva York y cumplir allí el sueño de su vida: convertirse en peluquero y estilista. Aunque Zohan se ha propuesto olvidar su peligrosa vida como agente de la lucha antiterrorista, pronto se da cuenta de que no es tan sencillo.

Ficha técnica

Video trailer de la película

Enlaces de descarga

Rip de Bluray

Descargar No te metas con Zohan (2008) [EXTENDED] Full 1080p Latino




Aportes de DPeliculasHDmega la pass es:dpeliculashdmega.org Aportes de CinemaniaHD la pass es:eatsouthward.com

Películas relacionadas

  • Ash vs. Evil Dead (2017) Temporada 3 WEBDL Latino

    2015
    Ash vs. Evil Dead (2017) Temporada 3 WEBDL Latino

    5.0 0h 43m 2015

    Esta temporada 3 seguirá, por tanto, contando con la participación de Lucy Lawless en el papel de la...

    Director: Sam Raimi

    Género: Acción

    Actores: Ray Santiago

  • Ahora los padres son ellos (2010) Full 1080p Latino

    2010
    Ahora los padres son ellos (2010) Full 1080p Latino

    5.0 1h 37m 2010

    Han tenido que pasar diez años, dos pequeños Fockers con su mujer, Pam (Polo) e incontables obstáculos...

    Director: Paul Weitz

    Género: Comedia

    Actores: Teri Polo

  • La Familia de Mi novio (2004) Full 1080p Latino

    2004
    La Familia de Mi novio (2004) Full 1080p Latino

    5.0 1h 55m 2004

    Cuatro años después de que el enfermero Greg (alias Gaylord) Focker, durante un fin de semana en casa...

    Director: Wilma Garscadden-Gahret

    Género: Comedia

    Actores: Wayne Thomas Yorke

  • La Familia de Mi novia (2000) Full 1080p Latino

    2000
    La Familia de Mi novia (2000) Full 1080p Latino

    5.0 1 h 47 min 2000

    Greg Focker (Ben Stiller) es un enfermero algo patoso que, tras anunciar su compromiso con novia Pam...

    Director: Richard Cowan

    Género: Comedia

    Actores: William Severs

Comentarios 1
-->