My Little Pony: La película (2017) 1080p Latino

1.314 vistas
1 estrella2 estrellas3 estrellas4 estrellas5 estrellas (Ninguna valoración todavía)
Cargando…

Información de My Little Pony: La película (2017) 1080p Latino

Datos de la película

  • Calidad: 1080p
  • Audio: Español Latino AC3 5.1 BLURAY - Ingles AC3 5.1 BLURAY
  • Subtitulos: Español Latino SRT
  • Resolución: 1912X808p
  • Formato: MKV
  • Codec: H.264
  • Encoder: CinemaniaHD
  • Mediainfo: Clic para Mostrar Datos Ver
  • Format                                   : Matroska
    Format version                           : Version 4 / Version 2
    File size                                : 3.02 GiB
    Duration                                 : 1 h 39 min
    Overall bit rate                         : 4 355 kb/s
    Movie name                               : CinemaniaHDD.com
    Encoded date                             : UTC 2017-12-31 04:14:33 / UTC 2017-12-31T02:51:47Z
    Writing application                      : mkvmerge v15.0.0 ('Duel with the Devil') 64-bit
    Writing library                          : libebml v1.3.5 + libmatroska v1.4.5 / Lavf57.7.2

    Video
    ID                                       : 1
    Format                                   : AVC
    Format/Info                              : Advanced Video Codec
    Format profile                           : [email protected]
    Format settings                          : CABAC / 5 Ref Frames
    Format settings, CABAC                   : Yes
    Format settings, RefFrames               : 5 frames
    Codec ID                                 : V_MPEG4/ISO/AVC
    Duration                                 : 1 h 39 min
    Bit rate                                 : 3 500 kb/s
    Width                                    : 1 920 pixels
    Height                                   : 808 pixels
    Display aspect ratio                     : 2.40:1
    Frame rate mode                          : Constant
    Frame rate                               : 23.976 (24000/1001) FPS
    Color space                              : YUV
    Chroma subsampling                       : 4:2:0
    Bit depth                                : 8 bits
    Scan type                                : Progressive
    Bits/(Pixel*Frame)                       : 0.094
    Stream size                              : 2.38 GiB (79%)
    Title                                    : My Little Pony La película (2017) 1080p Latino
    Writing library                          : x264 core 148 r2708 86b7198
    Encoding settings                        : cabac=1 / ref=5 / deblock=1:0:0 / analyse=0x3:0x113 / me=umh / subme=8 / psy=1 / psy_rd=1.00:0.00 / mixed_ref=1 / me_range=16 / chroma_me=1 / trellis=1 / 8x8dct=1 / cqm=0 / deadzone=21,11 / fast_pskip=1 / chroma_qp_offset=-2 / threads=25 / lookahead_threads=4 / sliced_threads=0 / nr=0 / decimate=1 / interlaced=0 / bluray_compat=0 / constrained_intra=0 / bframes=3 / b_pyramid=2 / b_adapt=2 / b_bias=0 / direct=3 / weightb=1 / open_gop=0 / weightp=2 / keyint=240 / keyint_min=24 / scenecut=40 / intra_refresh=0 / rc_lookahead=50 / rc=abr / mbtree=1 / bitrate=3500 / ratetol=1.0 / qcomp=0.60 / qpmin=0 / qpmax=69 / qpstep=4 / vbv_maxrate=62500 / vbv_bufsize=78125 / nal_hrd=none / filler=0 / ip_ratio=1.40 / aq=1:1.00
    Language                                 : English
    Default                                  : Yes
    Forced                                   : No
    Color range                              : Limited
    Color primaries                          : BT.709
    Transfer characteristics                 : BT.709
    Matrix coefficients                      : BT.709
    Statistics Tags Issue                    : mkvmerge v15.0.0 ('Duel with the Devil') 64-bit 2017-12-31 04:14:33 / mkvmerge v15.0.0 ('Duel with the Devil') 64-bit 2017-12-31 04:14:33 / UTC 2017-12-31T02:51:47Z
    FromStats_BitRate                        : 3521027
    FromStats_Duration                       : 01:39:14.991000000
    FromStats_FrameCount                     : 142777
    FromStats_StreamSize                     : 2620960829

    Audio #1
    ID                                       : 2
    Format                                   : AC-3
    Format/Info                              : Audio Coding 3
    Format settings, Endianness              : Big
    Codec ID                                 : A_AC3
    Duration                                 : 1 h 39 min
    Bit rate mode                            : Constant
    Bit rate                                 : 448 kb/s
    Channel(s)                               : 6 channels
    Channel positions                        : Front: L C R, Side: L R, LFE
    Sampling rate                            : 48.0 kHz
    Frame rate                               : 31.250 FPS (1536 SPF)
    Bit depth                                : 16 bits
    Compression mode                         : Lossy
    Delay relative to video                  : -5 ms
    Stream size                              : 318 MiB (10%)
    Language                                 : Spanish
    Service kind                             : Complete Main
    Default                                  : Yes
    Forced                                   : No
    Statistics Tags Issue                    : mkvmerge v15.0.0 ('Duel with the Devil') 64-bit 2017-12-31 04:14:33 / mkvmerge v15.0.0 ('Duel with the Devil') 64-bit 2017-12-31 04:14:33 / UTC 2017-12-31T02:51:47Z
    FromStats_BitRate                        : 448000
    FromStats_Duration                       : 01:39:14.464000000
    FromStats_FrameCount                     : 186077
    FromStats_StreamSize                     : 333449984

    Audio #2
    ID                                       : 3
    Format                                   : AC-3
    Format/Info                              : Audio Coding 3
    Format settings, Endianness              : Big
    Codec ID                                 : A_AC3
    Duration                                 : 1 h 39 min
    Bit rate mode                            : Constant
    Bit rate                                 : 384 kb/s
    Channel(s)                               : 6 channels
    Channel positions                        : Front: L C R, Side: L R, LFE
    Sampling rate                            : 48.0 kHz
    Frame rate                               : 31.250 FPS (1536 SPF)
    Bit depth                                : 16 bits
    Compression mode                         : Lossy
    Delay relative to video                  : -5 ms
    Stream size                              : 273 MiB (9%)
    Language                                 : English
    Service kind                             : Complete Main
    Default                                  : No
    Forced                                   : No
    Statistics Tags Issue                    : mkvmerge v15.0.0 ('Duel with the Devil') 64-bit 2017-12-31 04:14:33 / mkvmerge v15.0.0 ('Duel with the Devil') 64-bit 2017-12-31 04:14:33 / UTC 2017-12-31T02:51:47Z
    FromStats_BitRate                        : 384000
    FromStats_Duration                       : 01:39:14.976000000
    FromStats_FrameCount                     : 186093
    FromStats_StreamSize                     : 285838848

    Text
    ID                                       : 4
    Format                                   : UTF-8
    Codec ID                                 : S_TEXT/UTF8
    Codec ID/Info                            : UTF-8 Plain Text
    Language                                 : Spanish
    Default                                  : Yes
    Forced                                   : No
    Statistics Tags Issue                    : mkvmerge v15.0.0 ('Duel with the Devil') 64-bit 2017-12-31 04:14:33 / mkvmerge v15.0.0 ('Duel with the Devil') 64-bit 2017-12-31 04:14:33 / UTC 2017-12-31T02:51:47Z
    FromStats_BitRate                        : 51
    FromStats_Duration                       : 01:29:29.653000000
    FromStats_FrameCount                     : 1028
    FromStats_StreamSize                     : 34717

    Menu
    00:00:00.000                             : :00:00:00.000
    00:05:23.073                             : :00:05:23.073
    00:12:03.139                             : :00:12:03.139
    00:17:55.533                             : :00:17:55.533
    00:22:59.044                             : :00:22:59.044
    00:30:24.865                             : :00:30:24.865
    00:35:30.337                             : :00:35:30.336
    00:41:33.866                             : :00:41:33.866
    00:46:23.823                             : :00:46:23.823
    00:50:10.841                             : :00:50:10.841
    01:01:11.668                             : :01:01:11.543
    01:04:23.276                             : :01:04:23.276
    01:09:01.137                             : :01:09:01.137
    01:15:48.210                             : :01:15:48.210
    01:20:24.486                             : :01:20:24.486
    01:27:24.072                             : :01:27:24.072

     

  • Peso: 3.02 GiB

Sinopsis

Cuando una fuerza oscura amenaza a Ponyville y el Mane 6, todos se van en un viaje hasta el final de equestria para salvar a su querida casa, y se encuentran con nuevos amigos y peligrosos desafíos a lo largo del camino.

Ficha técnica

Video trailer de la película

Enlaces de descarga

Rip de Bluray

Descargar My Little Pony: La película (2017) 1080p Latino




Aportes de DPeliculasHDmega la pass es:dpeliculashdmega.org Aportes de CinemaniaHD la pass es:eatsouthward.com

Películas relacionadas

  • A Ghost Story (2017) 1080p Latino

    2017
    A Ghost Story (2017) 1080p Latino

    0.0 1h 27m 2017

    Un hombre recientemente fallecido regresa a su casa como un fantasma vestido con una sábana blanca para...

    Director: David Lowery

    Género: Drama

    Actores: Yasmina Gutierrez

  • Gun shy (2017) 1080p Latino

    2017
    Gun shy (2017) 1080p Latino

    0.0 1h 31m 2017

    Basada en la novela homónima de Mark Haskell Smith. Turk Henry es una antigua estrella de rock con sobrepeso...

    Director: Simon West

    Género: Acción

    Actores: Sebastián Apiolaza

  • Rebeldes con causa (2007) Full 1080p Latino

    2007
    Rebeldes con causa (2007) Full 1080p Latino

    5.0 1h 39m 2007

    Cuatro amigos de mediana edad (Travolta, Allen, Lawrence y H. Macy), entusiastas de las motos, deciden...

    Director: Walt Becker

    Género: Acción

    Actores: William H. Macy

  • Milagros inesperados (1999) Full 1080p Latino

    1999
    Milagros inesperados (1999) Full 1080p Latino

    5.0 3h 9m 1999

    En el sur de los Estados Unidos, en plena Depresión, Paul Edgecomb es un vigilante penitenciario a cargo...

    Director: Susan Malerstein

    Género: Crimen

    Actores: William Sadler

  • Marley y yo (2008) Full 1080p Latino

    2008
    Marley y yo (2008) Full 1080p Latino

    5.0 1 h 55 min 2008

    Los recién casados John y Jenny Grogan deciden dejar atrás los duros inviernos de Michigan para instalarse...

    Director: Sheila Waldron

    Género: Comedia

    Actores: Zabryna Guevara

Comentarios 3
  • etgar garcia - 01 enero, 2018

    y cuando suben la pelicula en version plateada???

    • dpelis - 02 enero, 2018

      esta semana

  • etgar garcia - 24 diciembre, 2017

    me gustaria que subieran las peliculas de equestria girls

-->