Menashe (2017) WEB-DL 1080p Latino

661 vistas
1 estrella2 estrellas3 estrellas4 estrellas5 estrellas (1 votos, promedio: 5,00 de 5)
Cargando…

Información de Menashe (2017) WEB-DL 1080p Latino

Datos de la película

  • Calidad: WEBDL
  • Audio: Español Latino AC3 2.0 Capturado - Ingles AC3 5.1 WEBDL
  • Subtitulos: No
  • Resolución: 1920X1000
  • Formato: MKV
  • Codec: H.264
  • Encoder: Dracarys
  • Mediainfo: Clic para Mostrar Datos Ver
  • Format                                   : Matroska
    Format version                           : Version 4 / Version 2
    File size                                : 2.43 GiB
    Duration                                 : 1 h 22 min
    Overall bit rate                         : 4 230 kb/s
    Movie name                               : CinemaniaHDD.com
    Encoded date                             : UTC 2017-12-16 06:59:29 / UTC 2017-12-16T06:12:33Z
    Writing application                      : mkvmerge v15.0.0 ('Duel with the Devil') 64-bit
    Writing library                          : libebml v1.3.5 + libmatroska v1.4.5 / Lavf57.7.2

    Video
    ID                                       : 1
    Format                                   : AVC
    Format/Info                              : Advanced Video Codec
    Format profile                           : [email protected]
    Format settings                          : CABAC / 4 Ref Frames
    Format settings, CABAC                   : Yes
    Format settings, RefFrames               : 4 frames
    Codec ID                                 : V_MPEG4/ISO/AVC
    Duration                                 : 1 h 22 min
    Bit rate                                 : 3 314 kb/s
    Nominal bit rate                         : 3 500 kb/s
    Width                                    : 1 920 pixels
    Height                                   : 1 000 pixels
    Display aspect ratio                     : 1.920
    Frame rate mode                          : Constant
    Frame rate                               : 23.976 (24000/1001) FPS
    Color space                              : YUV
    Chroma subsampling                       : 4:2:0
    Bit depth                                : 8 bits
    Scan type                                : Progressive
    Bits/(Pixel*Frame)                       : 0.072
    Stream size                              : 1.90 GiB (78%)
    Title                                    : Menashe (2017) WEB-DL 1080p Latino
    Writing library                          : x264 core 148 r2708 86b7198
    Encoding settings                        : cabac=1 / ref=3 / deblock=1:0:0 / analyse=0x3:0x113 / me=hex / subme=7 / psy=1 / psy_rd=1.00:0.00 / mixed_ref=1 / me_range=16 / chroma_me=1 / trellis=1 / 8x8dct=1 / cqm=0 / deadzone=21,11 / fast_pskip=1 / chroma_qp_offset=-2 / threads=31 / lookahead_threads=5 / sliced_threads=0 / nr=0 / decimate=1 / interlaced=0 / bluray_compat=0 / constrained_intra=0 / bframes=3 / b_pyramid=2 / b_adapt=1 / b_bias=0 / direct=1 / weightb=1 / open_gop=0 / weightp=2 / keyint=240 / keyint_min=24 / scenecut=40 / intra_refresh=0 / rc_lookahead=40 / rc=abr / mbtree=1 / bitrate=3500 / ratetol=1.0 / qcomp=0.60 / qpmin=0 / qpmax=69 / qpstep=4 / vbv_maxrate=62500 / vbv_bufsize=78125 / nal_hrd=none / filler=0 / ip_ratio=1.40 / aq=1:1.00
    Language                                 : English
    Default                                  : Yes
    Forced                                   : No
    Color range                              : Limited
    Color primaries                          : BT.709
    Transfer characteristics                 : BT.709
    Matrix coefficients                      : BT.709
    Statistics Tags Issue                    : mkvmerge v15.0.0 ('Duel with the Devil') 64-bit 2017-12-16 06:59:29 / mkvmerge v15.0.0 ('Duel with the Devil') 64-bit 2017-12-16 06:59:29 / UTC 2017-12-16T06:12:33Z
    FromStats_BitRate                        : 3396160
    FromStats_Duration                       : 01:22:15.764000000
    FromStats_FrameCount                     : 118340
    FromStats_StreamSize                     : 2095330843

    Audio #1
    ID                                       : 2
    Format                                   : AC-3
    Format/Info                              : Audio Coding 3
    Format settings, Endianness              : Big
    Codec ID                                 : A_AC3
    Duration                                 : 1 h 22 min
    Bit rate mode                            : Constant
    Bit rate                                 : 192 kb/s
    Channel(s)                               : 2 channels
    Channel positions                        : Front: L R
    Sampling rate                            : 48.0 kHz
    Frame rate                               : 31.250 FPS (1536 SPF)
    Bit depth                                : 16 bits
    Compression mode                         : Lossy
    Delay relative to video                  : 6 s 800 ms
    Stream size                              : 113 MiB (5%)
    Language                                 : Spanish
    Service kind                             : Complete Main
    Default                                  : Yes
    Forced                                   : No
    Statistics Tags Issue                    : mkvmerge v15.0.0 ('Duel with the Devil') 64-bit 2017-12-16 06:59:29 / mkvmerge v15.0.0 ('Duel with the Devil') 64-bit 2017-12-16 06:59:29 / UTC 2017-12-16T06:12:33Z
    FromStats_BitRate                        : 192000
    FromStats_Duration                       : 01:22:02.112000000
    FromStats_FrameCount                     : 153816
    FromStats_StreamSize                     : 118130688

    Audio #2
    ID                                       : 3
    Format                                   : E-AC-3
    Format/Info                              : Enhanced Audio Coding 3
    Format settings, Endianness              : Big
    Codec ID                                 : A_EAC3
    Duration                                 : 1 h 22 min
    Bit rate mode                            : Constant
    Bit rate                                 : 640 kb/s
    Channel(s)                               : 6 channels
    Channel positions                        : Front: L C R, Side: L R, LFE
    Sampling rate                            : 48.0 kHz
    Frame rate                               : 187.500 FPS (256 SPF)
    Compression mode                         : Lossy
    Stream size                              : 377 MiB (15%)
    Title                                    : Surround
    Language                                 : English
    Service kind                             : Complete Main
    Default                                  : No
    Forced                                   : No
    Statistics Tags Issue                    : mkvmerge v15.0.0 ('Duel with the Devil') 64-bit 2017-12-16 06:59:29 / mkvmerge v15.0.0 ('Duel with the Devil') 64-bit 2017-12-16 06:59:29 / UTC 2017-12-16T06:12:33Z
    FromStats_BitRate                        : 640000
    FromStats_Duration                       : 01:22:15.712000000
    FromStats_FrameCount                     : 154241
    FromStats_StreamSize                     : 394856960

  • Peso: 2.43 GiB

Sinopsis

En una comunidad judía ultraortodoxa de Brooklyn, un viudo lucha por la custodia de su hijo. Realizada en su totalidad dentro de una comunidad judía y protagonizada, por tanto, por un actor no profesional, Menashe Lustig, la cinta explora de modo íntimo la naturaleza de la fe y el precio de la paternidad.

Ficha técnica

  • Titulo original: Menashe
  • Fecha de lanzamiento: 28-07-2017 (United States of America)
  • Director: Joshua Z. Weinstein
  • Género: Drama
  • Puntuación: 5.0 1 votos
  • Duración:
    1 h 22 min

Video trailer de la película

Enlaces de descarga

Rip de Bluray

Descargar Menashe (2017) WEB-DL 1080p Latino




Aportes de DPeliculasHDmega la pass es:dpeliculashdmega.org Aportes de CinemaniaHD la pass es:eatsouthward.com
Guardado en : Drama

Películas relacionadas

  • A Ghost Story (2017) 1080p Latino

    2017
    A Ghost Story (2017) 1080p Latino

    0.0 1h 27m 2017

    Un hombre recientemente fallecido regresa a su casa como un fantasma vestido con una sábana blanca para...

    Director: David Lowery

    Género: Drama

    Actores: Yasmina Gutierrez

  • Milagros inesperados (1999) Full 1080p Latino

    1999
    Milagros inesperados (1999) Full 1080p Latino

    5.0 3h 9m 1999

    En el sur de los Estados Unidos, en plena Depresión, Paul Edgecomb es un vigilante penitenciario a cargo...

    Director: Susan Malerstein

    Género: Crimen

    Actores: William Sadler

  • La terminal (2004) Full 1080p Latino

    2004
    La terminal (2004) Full 1080p Latino

    5.0 2 h 8 min 2004

    Basado en hechos reales, Viktor Navorski (Tom Hanks) es un inmigrante balcánico que, al estallar la...

    Director: Steven Spielberg

    Género: Comedia

    Actores: Zoe Saldana

  • La invención de Cronos (1993) Full 1080p Latino

    1993
    La invención de Cronos (1993) Full 1080p Latino

    0.0 1 h 32 min 1993

    Cronos es un artefacto creado por un alquimista medieval, en cuyo interior se encuentra instalado un...

    Director: Guillermo del Toro

    Género: Drama

    Actores: Tamara Shanath

Comentarios 1
  • Diodark96 - 16 diciembre, 2017

    Gracias por la pelicula, nunca imagine que la subirian aqui. Excelente aporte 😀

-->