Magnolia (1999) Full 1080p Latino

1.321 vistas
1 estrella2 estrellas3 estrellas4 estrellas5 estrellas (Ninguna valoración todavía)
Cargando…

Información de Magnolia (1999) Full 1080p Latino

Datos de la película

  • Calidad: Full 1080p
  • Audio: Español Latino AC3 2.0 BLURAY - Ingles DTS 5.1 BLURAY
  • Subtitulos: Español Latino PGS - Ingles PGS
  • Resolución: 1920x1080p
  • Formato: MKV
  • Codec: H.264
  • Encoder: Dpelis
  • Mediainfo: Clic para Mostrar Datos Ver
  • Magnolia (1999) Full 1080p Latino.mkv
    Format                      : Matroska
    Format version              : Version 4 / Version 2
    File size                   : 6.82 GiB
    Duration                    : 3 h 8 min
    Overall bit rate            : 5 178 kb/s
    Movie name                  : DPeliculasHDMega.ORG
    Encoded date                : UTC 2017-09-18 00:22:52 / UTC 2017-09-17T03:53:39Z
    Writing application         : mkvmerge v10.0.0 ('To Drown In You') 64bit
    Writing library             : libebml v1.3.4 + libmatroska v1.4.5 / Lavf57.7.2

    Video
    ID                          : 1
    Format                      : AVC
    Format/Info                 : Advanced Video Codec
    Format profile              : [email protected]
    Format settings, CABAC      : Yes
    Format settings, RefFrames  : 4 frames
    Codec ID                    : V_MPEG4/ISO/AVC
    Duration                    : 3 h 8 min
    Bit rate                    : 4 243 kb/s
    Width                       : 1 920 pixels
    Height                      : 1 080 pixels
    Display aspect ratio        : 16:9
    Frame rate mode             : Constant
    Frame rate                  : 23.976 (24000/1001) FPS
    Color space                 : YUV
    Chroma subsampling          : 4:2:0
    Bit depth                   : 8 bits
    Scan type                   : Progressive
    Bits/(Pixel*Frame)          : 0.085
    Stream size                 : 5.59 GiB (82%)
    Writing library             : x264 core 148 r2708 86b7198
    Encoding settings           : cabac=1 / ref=4 / deblock=1:0:0 / analyse=0x3:0x133 / me=umh / subme=10 / psy=1 / psy_rd=1.00:0.00 / mixed_ref=1 / me_range=24 / chroma_me=1 / trellis=2 / 8x8dct=1 / cqm=0 / deadzone=21,11 / fast_pskip=1 / chroma_qp_offset=-2 / threads=34 / lookahead_threads=5 / sliced_threads=0 / nr=0 / decimate=1 / interlaced=0 / bluray_compat=0 / constrained_intra=0 / bframes=8 / b_pyramid=2 / b_adapt=2 / b_bias=0 / direct=3 / weightb=1 / open_gop=0 / weightp=2 / keyint=240 / keyint_min=24 / scenecut=40 / intra_refresh=0 / rc_lookahead=60 / rc=crf / mbtree=1 / crf=20.0 / qcomp=0.60 / qpmin=0 / qpmax=69 / qpstep=4 / vbv_maxrate=62500 / vbv_bufsize=78125 / crf_max=0.0 / nal_hrd=none / filler=0 / ip_ratio=1.40 / aq=1:1.00
    Default                     : Yes
    Forced                      : No
    Color range                 : Limited
    Color primaries             : BT.709
    Transfer characteristics    : BT.709
    Matrix coefficients         : BT.709
    Statistics Tags Issue       : mkvmerge v10.0.0 ('To Drown In You') 64bit 2017-09-18 00:22:52 / mkvmerge v10.0.0 ('To Drown In You') 64bit 2017-09-18 00:22:52 / UTC 2017-09-17T03:53:39Z
    FromStats_BitRate           : 4307845
    FromStats_Duration          : 03:08:39.684000000
    FromStats_FrameCount        : 271401
    FromStats_StreamSize        : 6095430826

    Audio #1
    ID                          : 2
    Format                      : AC-3
    Format/Info                 : Audio Coding 3
    Mode                        : Dolby Digital
    Format settings, Endianness : Big
    Codec ID                    : A_AC3
    Duration                    : 3 h 8 min
    Bit rate mode               : Constant
    Bit rate                    : 192 kb/s
    Channel(s)                  : 2 channels
    Channel positions           : Front: L R
    Sampling rate               : 48.0 kHz
    Frame rate                  : 31.250 FPS (1536 SPF)
    Bit depth                   : 16 bits
    Compression mode            : Lossy
    Stream size                 : 259 MiB (4%)
    Title                       : Stereo
    Language                    : Spanish
    Service kind                : Complete Main
    Default                     : Yes
    Forced                      : No
    Statistics Tags Issue       : mkvmerge v10.0.0 ('To Drown In You') 64bit 2017-09-18 00:22:52 / mkvmerge v10.0.0 ('To Drown In You') 64bit 2017-09-18 00:22:52 / UTC 2017-09-17T03:53:39Z
    FromStats_BitRate           : 192000
    FromStats_Duration          : 03:08:39.712000000
    FromStats_FrameCount        : 353741
    FromStats_StreamSize        : 271673088

    Audio #2
    ID                          : 3
    Format                      : AC-3
    Format/Info                 : Audio Coding 3
    Format settings, Endianness : Big
    Codec ID                    : A_AC3
    Duration                    : 3 h 8 min
    Bit rate mode               : Constant
    Bit rate                    : 640 kb/s
    Channel(s)                  : 6 channels
    Channel positions           : Front: L C R, Side: L R, LFE
    Sampling rate               : 48.0 kHz
    Frame rate                  : 31.250 FPS (1536 SPF)
    Bit depth                   : 16 bits
    Compression mode            : Lossy
    Stream size                 : 864 MiB (12%)
    Title                       : Surround
    Language                    : English
    Service kind                : Complete Main
    Default                     : No
    Forced                      : No
    Statistics Tags Issue       : mkvmerge v10.0.0 ('To Drown In You') 64bit 2017-09-18 00:22:52 / mkvmerge v10.0.0 ('To Drown In You') 64bit 2017-09-18 00:22:52 / UTC 2017-09-17T03:53:39Z
    FromStats_BitRate           : 640000
    FromStats_Duration          : 03:08:39.712000000
    FromStats_FrameCount        : 353741
    FromStats_StreamSize        : 905576960

    Text #1
    ID                          : 4
    Format                      : PGS
    Muxing mode                 : zlib
    Codec ID                    : S_HDMV/PGS
    Codec ID/Info               : Picture based subtitle format used on BDs/HD-DVDs
    Language                    : Spanish
    Default                     : No
    Forced                      : No
    Statistics Tags Issue       : mkvmerge v10.0.0 ('To Drown In You') 64bit 2017-09-18 00:22:52 / mkvmerge v10.0.0 ('To Drown In You') 64bit 2017-09-18 00:22:52 / UTC 2017-09-17T03:53:39Z
    FromStats_BitRate           : 16634
    FromStats_Duration          : 03:08:15.618000000
    FromStats_FrameCount        : 4947
    FromStats_StreamSize        : 23487041

    Text #2
    ID                          : 5
    Format                      : PGS
    Muxing mode                 : zlib
    Codec ID                    : S_HDMV/PGS
    Codec ID/Info               : Picture based subtitle format used on BDs/HD-DVDs
    Language                    : English
    Default                     : No
    Forced                      : No
    Statistics Tags Issue       : mkvmerge v10.0.0 ('To Drown In You') 64bit 2017-09-18 00:22:52 / mkvmerge v10.0.0 ('To Drown In You') 64bit 2017-09-18 00:22:52 / UTC 2017-09-17T03:53:39Z
    FromStats_BitRate           : 18731
    FromStats_Duration          : 03:08:15.618000000
    FromStats_FrameCount        : 5520
    FromStats_StreamSize        : 26448132

    Text #3
    ID                          : 6
    Format                      : UTF-8
    Codec ID                    : S_TEXT/UTF8
    Codec ID/Info               : UTF-8 Plain Text
    Language                    : Spanish
    Default                     : No
    Forced                      : No
    Statistics Tags Issue       : mkvmerge v10.0.0 ('To Drown In You') 64bit 2017-09-18 00:22:52 / mkvmerge v10.0.0 ('To Drown In You') 64bit 2017-09-18 00:22:52 / UTC 2017-09-17T03:53:39Z
    FromStats_BitRate           : 64
    FromStats_Duration          : 03:02:48.474000000
    FromStats_FrameCount        : 2698
    FromStats_StreamSize        : 88560

    Menu
    00:00:00.000                : :Chapter 1
    00:06:04.322                : :Chapter 2
    00:12:58.695                : :Chapter 3
    00:43:22.350                : :Chapter 4
    00:56:30.262                : :Chapter 5
    01:17:18.259                : :Chapter 6
    01:28:06.156                : :Chapter 7
    01:41:53.065                : :Chapter 8
    02:02:59.664                : :Chapter 9
    02:36:52.194                : :Chapter 10
    02:45:21.120                : :Chapter 11
    02:52:22.457                : :Chapter 12

  • Peso: 6.82 GB

Sinopsis

La película consta de nueve tramas paralelas que tienen lugar en el Valle de San Fernando, en Los Angeles: un niño prodigio, el presentador de un concurso de televisión, un ex-niño prodigio, un moribundo, su hijo perdido, la mujer y el enfermero del moribundo. Son historias aparentemente independientes, pero que guardan entre sí una extraña relación. Magnolia es el retrato de la vida americana visto a través de una serie de viñetas cómicas y conmovedoras.

Ficha técnica

Video trailer de la película

Enlaces de descarga

Rip de Bluray

Descargar Magnolia (1999) Full 1080p Latino




Aportes de DPeliculasHDmega la pass es:dpeliculashdmega.org Aportes de CinemaniaHD la pass es:eatsouthward.com
Guardado en : Drama , FULL 1080p Plateadas

Películas relacionadas

  • Hostiles (2017) 1080p Subtitulado

    2017
    Hostiles (2017) 1080p Subtitulado

    0.0 2h 13m 2017

    El legendario capitán del ejército Joseph J. Blocker (Christian Bale) se compromete para acompañar...

    Director: Xanthus Valan

    Género: Aventura

    Actores: Xavier Horsechief

  • Ahora los padres son ellos (2010) Full 1080p Latino

    2010
    Ahora los padres son ellos (2010) Full 1080p Latino

    5.0 1h 37m 2010

    Han tenido que pasar diez años, dos pequeños Fockers con su mujer, Pam (Polo) e incontables obstáculos...

    Director: Paul Weitz

    Género: Comedia

    Actores: Teri Polo

  • La Familia de Mi novio (2004) Full 1080p Latino

    2004
    La Familia de Mi novio (2004) Full 1080p Latino

    5.0 1h 55m 2004

    Cuatro años después de que el enfermero Greg (alias Gaylord) Focker, durante un fin de semana en casa...

    Director: Wilma Garscadden-Gahret

    Género: Comedia

    Actores: Wayne Thomas Yorke

Comentarios 2
  • Luis - 18 septiembre, 2017

    Muchas Gracias por los Clasicos, de haber en Version Unrated, Bienvenido sea.
    Me encantan las peliculas de los 80s y 90s .

    • dpelis - 18 septiembre, 2017

      nose estimado.. es unico que encontre, es un pedido. saludos

-->