Madre! (2017) 1080p Latino

1.056 vistas
1 estrella2 estrellas3 estrellas4 estrellas5 estrellas (Ninguna valoración todavía)
Cargando…

Información de Madre! (2017) 1080p Latino

Datos de la película

  • Calidad: 1080p
  • Audio: Español Latino AC3 5.1 BLURAY - Ingles AC3 5.1 BLURAY
  • Subtitulos: Español Latino SRT- FORZADOS SRT
  • Resolución: 1920X804
  • Formato: MKV
  • Codec: H.264
  • Encoder: Dracarys
  • Mediainfo: Clic para Mostrar Datos Ver
  • Format                                   : Matroska
    Format version                           : Version 4 / Version 2
    File size                                : 3.55 GiB
    Duration                                 : 2 h 1 min
    Overall bit rate                         : 4 189 kb/s
    Movie name                               : CinemaniaHDD.com
    Encoded date                             : UTC 2017-12-07 22:13:35 / UTC 2017-12-07T07:44:37Z
    Writing application                      : mkvmerge v15.0.0 ('Duel with the Devil') 64-bit
    Writing library                          : libebml v1.3.5 + libmatroska v1.4.5 / Lavf57.7.2

    Video
    ID                                       : 1
    Format                                   : AVC
    Format/Info                              : Advanced Video Codec
    Format profile                           : [email protected]
    Format settings                          : CABAC / 5 Ref Frames
    Format settings, CABAC                   : Yes
    Format settings, RefFrames               : 5 frames
    Codec ID                                 : V_MPEG4/ISO/AVC
    Duration                                 : 2 h 1 min
    Bit rate                                 : 3 500 kb/s
    Width                                    : 1 920 pixels
    Height                                   : 804 pixels
    Display aspect ratio                     : 2.40:1
    Frame rate mode                          : Constant
    Frame rate                               : 23.976 (24000/1001) FPS
    Color space                              : YUV
    Chroma subsampling                       : 4:2:0
    Bit depth                                : 8 bits
    Scan type                                : Progressive
    Bits/(Pixel*Frame)                       : 0.095
    Stream size                              : 2.83 GiB (80%)
    Title                                    : Madre! (2017) 1080p Latino
    Writing library                          : x264 core 148 r2708 86b7198
    Encoding settings                        : cabac=1 / ref=5 / deblock=1:0:0 / analyse=0x3:0x113 / me=umh / subme=8 / psy=1 / psy_rd=1.00:0.00 / mixed_ref=1 / me_range=16 / chroma_me=1 / trellis=1 / 8x8dct=1 / cqm=0 / deadzone=21,11 / fast_pskip=1 / chroma_qp_offset=-2 / threads=25 / lookahead_threads=4 / sliced_threads=0 / nr=0 / decimate=1 / interlaced=0 / bluray_compat=0 / constrained_intra=0 / bframes=3 / b_pyramid=2 / b_adapt=2 / b_bias=0 / direct=3 / weightb=1 / open_gop=0 / weightp=2 / keyint=240 / keyint_min=24 / scenecut=40 / intra_refresh=0 / rc_lookahead=50 / rc=abr / mbtree=1 / bitrate=3500 / ratetol=1.0 / qcomp=0.60 / qpmin=0 / qpmax=69 / qpstep=4 / vbv_maxrate=62500 / vbv_bufsize=78125 / nal_hrd=none / filler=0 / ip_ratio=1.40 / aq=1:1.00
    Language                                 : English
    Default                                  : Yes
    Forced                                   : No
    Color range                              : Limited
    Color primaries                          : BT.709
    Transfer characteristics                 : BT.709
    Matrix coefficients                      : BT.709
    Statistics Tags Issue                    : mkvmerge v15.0.0 ('Duel with the Devil') 64-bit 2017-12-07 22:13:35 / mkvmerge v15.0.0 ('Duel with the Devil') 64-bit 2017-12-07 22:13:35 / UTC 2017-12-07T07:44:37Z
    FromStats_BitRate                        : 3418445
    FromStats_Duration                       : 02:01:11.723000000
    FromStats_FrameCount                     : 174347
    FromStats_StreamSize                     : 3107248523

    Audio #1
    ID                                       : 2
    Format                                   : AC-3
    Format/Info                              : Audio Coding 3
    Format settings, Endianness              : Big
    Codec ID                                 : A_AC3
    Duration                                 : 2 h 1 min
    Bit rate mode                            : Constant
    Bit rate                                 : 384 kb/s
    Channel(s)                               : 6 channels
    Channel positions                        : Front: L C R, Side: L R, LFE
    Sampling rate                            : 48.0 kHz
    Frame rate                               : 31.250 FPS (1536 SPF)
    Bit depth                                : 16 bits
    Compression mode                         : Lossy
    Delay relative to video                  : -5 ms
    Stream size                              : 333 MiB (9%)
    Title                                    : AC3-BluRay
    Language                                 : Spanish
    Service kind                             : Complete Main
    Default                                  : Yes
    Forced                                   : No
    Statistics Tags Issue                    : mkvmerge v15.0.0 ('Duel with the Devil') 64-bit 2017-12-07 22:13:35 / mkvmerge v15.0.0 ('Duel with the Devil') 64-bit 2017-12-07 22:13:35 / UTC 2017-12-07T07:44:37Z
    FromStats_BitRate                        : 384000
    FromStats_Duration                       : 02:01:11.808000000
    FromStats_FrameCount                     : 227244
    FromStats_StreamSize                     : 349046784

    Audio #2
    ID                                       : 3
    Format                                   : AC-3
    Format/Info                              : Audio Coding 3
    Format settings, Endianness              : Big
    Codec ID                                 : A_AC3
    Duration                                 : 2 h 1 min
    Bit rate mode                            : Constant
    Bit rate                                 : 384 kb/s
    Channel(s)                               : 6 channels
    Channel positions                        : Front: L C R, Side: L R, LFE
    Sampling rate                            : 48.0 kHz
    Frame rate                               : 31.250 FPS (1536 SPF)
    Bit depth                                : 16 bits
    Compression mode                         : Lossy
    Delay relative to video                  : -5 ms
    Stream size                              : 333 MiB (9%)
    Title                                    : AC3-BluRay
    Language                                 : English
    Service kind                             : Complete Main
    Default                                  : No
    Forced                                   : No
    Statistics Tags Issue                    : mkvmerge v15.0.0 ('Duel with the Devil') 64-bit 2017-12-07 22:13:35 / mkvmerge v15.0.0 ('Duel with the Devil') 64-bit 2017-12-07 22:13:35 / UTC 2017-12-07T07:44:37Z
    FromStats_BitRate                        : 384000
    FromStats_Duration                       : 02:01:11.744000000
    FromStats_FrameCount                     : 227242
    FromStats_StreamSize                     : 349043712

    Text #1
    ID                                       : 4
    Format                                   : UTF-8
    Codec ID                                 : S_TEXT/UTF8
    Codec ID/Info                            : UTF-8 Plain Text
    Title                                    : Forzados
    Language                                 : Spanish
    Default                                  : Yes
    Forced                                   : Yes
    Statistics Tags Issue                    : mkvmerge v15.0.0 ('Duel with the Devil') 64-bit 2017-12-07 22:13:35 / mkvmerge v15.0.0 ('Duel with the Devil') 64-bit 2017-12-07 22:13:35 / UTC 2017-12-07T07:44:37Z
    FromStats_BitRate                        : 0
    FromStats_Duration                       : 01:56:24.984000000
    FromStats_FrameCount                     : 2
    FromStats_StreamSize                     : 16

    Text #2
    ID                                       : 5
    Format                                   : UTF-8
    Codec ID                                 : S_TEXT/UTF8
    Codec ID/Info                            : UTF-8 Plain Text
    Title                                    : Completos
    Language                                 : Spanish
    Default                                  : No
    Forced                                   : No
    Statistics Tags Issue                    : mkvmerge v15.0.0 ('Duel with the Devil') 64-bit 2017-12-07 22:13:35 / mkvmerge v15.0.0 ('Duel with the Devil') 64-bit 2017-12-07 22:13:35 / UTC 2017-12-07T07:44:37Z
    FromStats_BitRate                        : 36
    FromStats_Duration                       : 01:56:25.069000000
    FromStats_FrameCount                     : 1147
    FromStats_StreamSize                     : 31575

    Menu
    00:00:00.000                             : :00:00:00.000
    00:06:22.507                             : :00:06:22.507
    00:10:21.079                             : :00:10:21.079
    00:15:59.542                             : :00:15:59.500
    00:21:37.922                             : :00:21:37.922
    00:24:59.415                             : :00:24:59.415
    00:31:31.056                             : :00:31:31.056
    00:38:29.224                             : :00:38:29.224
    00:44:57.028                             : :00:44:57.028
    00:49:35.764                             : :00:49:35.764
    00:53:43.303                             : :00:53:43.303
    01:02:19.694                             : :01:02:19.694
    01:08:24.934                             : :01:08:24.809
    01:16:52.191                             : :01:16:52.191
    01:20:30.909                             : :01:20:30.909
    01:28:26.885                             : :01:28:26.885
    01:38:08.716                             : :01:38:08.716
    01:45:52.638                             : :01:45:52.638
    01:49:48.624                             : :01:49:48.624
    01:56:21.224                             : :01:56:21.183

  • Peso: 3.55 GiB

Sinopsis

Una pareja se acaba de instalar en una gran y aislada mansión en el campo para que él, un poeta maduro en horas bajas (Javier Bardem), encuentre la inspiración de nuevo. Ella (Jennifer Lawrence), su joven esposa, está centrada en rehabilitar el magnífico edificio. Su relación será puesta a prueba con la llegada de una visita inesperada, ya que un día un extraño (Ed Harris) llama a la puerta, y al día siguiente lo hace también su esposa (Michelle Pfeiffer). A partir de ese momento, su tranquila vida quedará perturbada por completo. Una serie de acontecimientos realmente perturbadores, cada vez más, empiezan a suceder. Y es que, esta visita tan inesperada como inquietante abrirá la caja de Pandora.

Ficha técnica

Video trailer de la película

Enlaces de descarga

Rip de Bluray

Descargar Madre! (2017) 1080p Latino




Aportes de DPeliculasHDmega la pass es:dpeliculashdmega.org Aportes de CinemaniaHD la pass es:eatsouthward.com
Guardado en : Drama , Terror

Películas relacionadas

  • Ash vs. Evil Dead (2017) Temporada 3 WEBDL Latino

    2015
    Ash vs. Evil Dead (2017) Temporada 3 WEBDL Latino

    5.0 0h 43m 2015

    Esta temporada 3 seguirá, por tanto, contando con la participación de Lucy Lawless en el papel de la...

    Director: Sam Raimi

    Género: Acción

    Actores: Ray Santiago

  • Hostiles (2017) 1080p Subtitulado

    2017
    Hostiles (2017) 1080p Subtitulado

    0.0 2h 13m 2017

    El legendario capitán del ejército Joseph J. Blocker (Christian Bale) se compromete para acompañar...

    Director: Xanthus Valan

    Género: Aventura

    Actores: Xavier Horsechief

Comentarios 0
-->