Llévame a casa esta noche papi (2011) Full 1080p Latino

1.278 vistas
1 estrella2 estrellas3 estrellas4 estrellas5 estrellas (2 votos, promedio: 2,00 de 5)
Cargando…

Información de Llévame a casa esta noche papi (2011) Full 1080p Latino

Datos de la película

  • Calidad: Full 1080p
  • Audio: Español Latino DTS 5.1 BLURAY - Ingles DTS 5.1 BLURAY
  • Subtitulos: Español Latino PGS - Ingles PGS
  • Resolución: 1920X1080p
  • Formato: MKV
  • Codec: H.264
  • Encoder: Dracarys
  • Mediainfo: Clic para Mostrar Datos Ver
  • Format                                   : Matroska
    Format version                           : Version 4 / Version 2
    File size                                : 9.77 GiB
    Duration                                 : 1 h 37 min
    Overall bit rate                         : 14.3 Mb/s
    Movie name                               : CinemaniaHDD.com
    Encoded date                             : UTC 2018-02-22 23:25:08 / UTC 2018-02-22T18:29:37Z
    Writing application                      : mkvmerge v15.0.0 ('Duel with the Devil') 64-bit
    Writing library                          : libebml v1.3.5 + libmatroska v1.4.5 / Lavf57.7.2

    Video
    ID                                       : 1
    Format                                   : AVC
    Format/Info                              : Advanced Video Codec
    Format profile                           : [email protected]
    Format settings                          : CABAC / 4 Ref Frames
    Format settings, CABAC                   : Yes
    Format settings, RefFrames               : 4 frames
    Codec ID                                 : V_MPEG4/ISO/AVC
    Duration                                 : 1 h 37 min
    Bit rate                                 : 11.8 Mb/s
    Width                                    : 1 920 pixels
    Height                                   : 1 080 pixels
    Display aspect ratio                     : 16:9
    Frame rate mode                          : Constant
    Frame rate                               : 23.976 (24000/1001) FPS
    Color space                              : YUV
    Chroma subsampling                       : 4:2:0
    Bit depth                                : 8 bits
    Scan type                                : Progressive
    Bits/(Pixel*Frame)                       : 0.237
    Stream size                              : 8.03 GiB (82%)
    Title                                    : Llévame a casa esta noche papi (2011) Full 1080p Latino
    Writing library                          : x264 core 148 r2708 86b7198
    Encoding settings                        : cabac=1 / ref=4 / deblock=1:0:0 / analyse=0x3:0x133 / me=esa / subme=9 / psy=1 / psy_rd=1.00:0.00 / mixed_ref=1 / me_range=16 / chroma_me=1 / trellis=2 / 8x8dct=1 / cqm=0 / deadzone=21,11 / fast_pskip=1 / chroma_qp_offset=-2 / threads=34 / lookahead_threads=2 / sliced_threads=0 / nr=0 / decimate=1 / interlaced=0 / bluray_compat=0 / constrained_intra=0 / bframes=3 / b_pyramid=2 / b_adapt=2 / b_bias=0 / direct=3 / weightb=1 / open_gop=0 / weightp=2 / keyint=240 / keyint_min=24 / scenecut=40 / intra_refresh=0 / rc_lookahead=60 / rc=crf / mbtree=1 / crf=20.0 / qcomp=0.60 / qpmin=0 / qpmax=69 / qpstep=4 / vbv_maxrate=62500 / vbv_bufsize=78125 / crf_max=0.0 / nal_hrd=none / filler=0 / ip_ratio=1.40 / aq=1:1.00
    Language                                 : English
    Default                                  : Yes
    Forced                                   : No
    Color range                              : Limited
    Color primaries                          : BT.709
    Transfer characteristics                 : BT.709
    Matrix coefficients                      : BT.709
    Statistics Tags Issue                    : mkvmerge v15.0.0 ('Duel with the Devil') 64-bit 2018-02-22 23:25:08 / mkvmerge v15.0.0 ('Duel with the Devil') 64-bit 2018-02-22 23:25:08 / UTC 2018-02-22T18:29:37Z
    FromStats_BitRate                        : 12024731
    FromStats_Duration                       : 01:37:39.854000000
    FromStats_FrameCount                     : 140496
    FromStats_StreamSize                     : 8807896215

    Audio #1
    ID                                       : 2
    Format                                   : DTS
    Format/Info                              : Digital Theater Systems
    Mode                                     : 16
    Format settings, Endianness              : Big
    Codec ID                                 : A_DTS
    Duration                                 : 1 h 37 min
    Bit rate mode                            : Constant
    Bit rate                                 : 768 kb/s
    Channel(s)                               : 6 channels
    Channel positions                        : Front: L C R, Side: L R, LFE
    Sampling rate                            : 48.0 kHz
    Frame rate                               : 93.750 FPS (512 SPF)
    Bit depth                                : 16 bits
    Compression mode                         : Lossy
    Stream size                              : 536 MiB (5%)
    Language                                 : Spanish
    Default                                  : Yes
    Forced                                   : No
    Statistics Tags Issue                    : mkvmerge v15.0.0 ('Duel with the Devil') 64-bit 2018-02-22 23:25:08 / mkvmerge v15.0.0 ('Duel with the Devil') 64-bit 2018-02-22 23:25:08 / UTC 2018-02-22T18:29:37Z
    FromStats_BitRate                        : 767999
    FromStats_Duration                       : 01:37:39.862000000
    FromStats_FrameCount                     : 549362
    FromStats_StreamSize                     : 562546688

    Audio #2
    ID                                       : 3
    Format                                   : DTS
    Format/Info                              : Digital Theater Systems
    Mode                                     : 16
    Format settings, Endianness              : Big
    Codec ID                                 : A_DTS
    Duration                                 : 1 h 37 min
    Bit rate mode                            : Constant
    Bit rate                                 : 1 509 kb/s
    Channel(s)                               : 6 channels
    Channel positions                        : Front: L C R, Side: L R, LFE
    Sampling rate                            : 48.0 kHz
    Frame rate                               : 93.750 FPS (512 SPF)
    Bit depth                                : 24 bits
    Compression mode                         : Lossy
    Stream size                              : 1.03 GiB (11%)
    Language                                 : English
    Default                                  : No
    Forced                                   : No
    Statistics Tags Issue                    : mkvmerge v15.0.0 ('Duel with the Devil') 64-bit 2018-02-22 23:25:08 / mkvmerge v15.0.0 ('Duel with the Devil') 64-bit 2018-02-22 23:25:08 / UTC 2018-02-22T18:29:37Z
    FromStats_BitRate                        : 1508999
    FromStats_Duration                       : 01:37:39.862000000
    FromStats_FrameCount                     : 549362
    FromStats_StreamSize                     : 1105316344

    Text #1
    ID                                       : 4
    Format                                   : PGS
    Muxing mode                              : zlib
    Codec ID                                 : S_HDMV/PGS
    Codec ID/Info                            : Picture based subtitle format used on BDs/HD-DVDs
    Title                                    : Forzados
    Language                                 : Spanish
    Default                                  : Yes
    Forced                                   : Yes
    Statistics Tags Issue                    : mkvmerge v15.0.0 ('Duel with the Devil') 64-bit 2018-02-22 23:25:08 / mkvmerge v15.0.0 ('Duel with the Devil') 64-bit 2018-02-22 23:25:08 / UTC 2018-02-22T18:29:37Z
    FromStats_BitRate                        : 310
    FromStats_Duration                       : 01:34:02.637000000
    FromStats_FrameCount                     : 26
    FromStats_StreamSize                     : 218922

    Text #2
    ID                                       : 5
    Format                                   : PGS
    Muxing mode                              : zlib
    Codec ID                                 : S_HDMV/PGS
    Codec ID/Info                            : Picture based subtitle format used on BDs/HD-DVDs
    Language                                 : Spanish
    Default                                  : No
    Forced                                   : No
    Statistics Tags Issue                    : mkvmerge v15.0.0 ('Duel with the Devil') 64-bit 2018-02-22 23:25:08 / mkvmerge v15.0.0 ('Duel with the Devil') 64-bit 2018-02-22 23:25:08 / UTC 2018-02-22T18:29:37Z
    FromStats_BitRate                        : 34655
    FromStats_Duration                       : 01:36:14.227000000
    FromStats_FrameCount                     : 2724
    FromStats_StreamSize                     : 25013615

    Text #3
    ID                                       : 6
    Format                                   : PGS
    Muxing mode                              : zlib
    Codec ID                                 : S_HDMV/PGS
    Codec ID/Info                            : Picture based subtitle format used on BDs/HD-DVDs
    Language                                 : English
    Default                                  : No
    Forced                                   : No
    Statistics Tags Issue                    : mkvmerge v15.0.0 ('Duel with the Devil') 64-bit 2018-02-22 23:25:08 / mkvmerge v15.0.0 ('Duel with the Devil') 64-bit 2018-02-22 23:25:08 / UTC 2018-02-22T18:29:37Z
    FromStats_BitRate                        : 45853
    FromStats_Duration                       : 01:31:28.817000000
    FromStats_FrameCount                     : 3068
    FromStats_StreamSize                     : 31459981

    Menu
    00:00:00.000                             : :00:00:00.000
    00:03:37.300                             : :00:03:37.300
    00:06:57.751                             : :00:06:57.751
    00:12:40.009                             : :00:12:40.009
    00:17:01.896                             : :00:17:01.896
    00:21:41.383                             : :00:21:41.383
    00:25:49.131                             : :00:25:49.131
    00:28:56.902                             : :00:28:56.902
    00:33:45.899                             : :00:33:45.899
    00:37:31.416                             : :00:37:31.416
    00:41:55.638                             : :00:41:55.638
    00:45:19.550                             : :00:45:19.550
    00:50:11.008                             : :00:50:11.008
    00:53:58.360                             : :00:53:58.360
    01:00:37.759                             : :01:00:37.759
    01:08:36.446                             : :01:08:36.446
    01:13:45.838                             : :01:13:45.838
    01:20:28.282                             : :01:20:28.282
    01:26:11.124                             : :01:26:11.124
    01:32:27.000                             : :01:32:27.000

  • Peso: 9.77 GiB

Sinopsis

En el verano de 1988, tras licenciarse en la Universidad, tres amigos están a punto de asistir a una fiesta desenfrenada. Uno de ellos, Matt Franklin (Topher Grace) debería trabajar para la compañía Fortune 500, pero, inexplicablemente para su familia y sus amigos, trabaja a tiempo parcial en una tienda de vídeos de una galería comercial. Quizá lo haga para estar cerca de Tori Frederking (Teresa Palmer), su amor platónico del instituto. Cuando ella lo invita a una fiesta, Matt, que cree que por fin ha llegado su oportunidad, acude con su hermana gemela (Anna Faris) y su mejor amigo (Dan Fogler).

Ficha técnica

Video trailer de la película

Enlaces de descarga

Rip de Bluray

Descargar Llévame a casa esta noche papi (2011) Full 1080p Latino




Aportes de DPeliculasHDmega la pass es:dpeliculashdmega.org Aportes de CinemaniaHD la pass es:eatsouthward.com

Películas relacionadas

  • Niños del hombre (2006) Full 1080p Latino

    2006
    Niños del hombre (2006) Full 1080p Latino

    0.0 1 h 49 min 2006

    Año 2027: el ser humano está al borde de la extinción: los hombres han perdido la capacidad de procrear...

    Director: Terry Needham

    Género: Acción

    Actores: Yolanda Vazquez

  • Amateur (2018) NF Webrip 1080p Latino

    2018
    Amateur (2018) NF Webrip 1080p Latino

    0.0 1h 36m 2018

    Un joven jugador de baloncesto se enfrenta a las dificultades de encajar en el nuevo equipo. Adaptación...

    Director: Ryan Koo

    Género: Drama

    Actores: Tekola Cornetet

  • Para atrapar al ladrón (1955) Full 1080p Latino

    1955
    Para atrapar al ladrón (1955) Full 1080p Latino

    0.0 1h 46m 1955

    A pesar de que John Robie "El Gato" (Cary Grant) es un ladrón de joyas reformado, se convierte en el...

    Director: Alfred Hitchcock

    Género: Crimen

    Actores: William 'Wee Willie' Davis

  • Si decido quedarme (2014) Full 1080p Latino

    2014
    Si decido quedarme (2014) Full 1080p Latino

    5.0 1 h 46 min 2014

    Mia es una joven de 17 años que parece tenerlo todo en la vida: una famila adorable, un novio que la...

    Director: R.J. Cutler

    Género: Drama

    Actores: William C. Vaughan

Comentarios 0
-->