Línea mortal: al límite (2017) Full 1080p Latino

1.938 vistas
1 estrella2 estrellas3 estrellas4 estrellas5 estrellas (1 votos, promedio: 5,00 de 5)
Cargando…

Información de Línea mortal: al límite (2017) Full 1080p Latino

Datos de la película

  • Calidad: Full 1080p
  • Audio: Español Latino AC3 5.1 BLURAY - Ingles DTS 5.1 BLURAY
  • Subtitulos: Español Latino PGS - Ingles PGS
  • Resolución: 1920X1080
  • Formato: MKV
  • Codec: H.264
  • Encoder: Dracarys
  • Mediainfo: Clic para Mostrar Datos Ver
  • Format                                   : Matroska
    Format version                           : Version 4 / Version 2
    File size                                : 4.76 GiB
    Duration                                 : 1 h 49 min
    Overall bit rate                         : 6 204 kb/s
    Movie name                               : CinemaniaHDD.com
    Encoded date                             : UTC 2017-12-14 20:56:38 / UTC 2017-12-14T11:24:35Z
    Writing application                      : mkvmerge v15.0.0 ('Duel with the Devil') 64-bit
    Writing library                          : libebml v1.3.5 + libmatroska v1.4.5 / Lavf57.7.2

    Video
    ID                                       : 1
    Format                                   : AVC
    Format/Info                              : Advanced Video Codec
    Format profile                           : [email protected]
    Format settings                          : CABAC / 4 Ref Frames
    Format settings, CABAC                   : Yes
    Format settings, RefFrames               : 4 frames
    Codec ID                                 : V_MPEG4/ISO/AVC
    Duration                                 : 1 h 49 min
    Bit rate                                 : 3 931 kb/s
    Width                                    : 1 920 pixels
    Height                                   : 1 080 pixels
    Display aspect ratio                     : 16:9
    Frame rate mode                          : Constant
    Frame rate                               : 23.976 (24000/1001) FPS
    Color space                              : YUV
    Chroma subsampling                       : 4:2:0
    Bit depth                                : 8 bits
    Scan type                                : Progressive
    Bits/(Pixel*Frame)                       : 0.079
    Stream size                              : 3.01 GiB (63%)
    Title                                    : Línea mortal: al límite (2017) Full 1080p Latino
    Writing library                          : x264 core 148 r2708 86b7198
    Encoding settings                        : cabac=1 / ref=4 / deblock=1:0:0 / analyse=0x3:0x133 / me=esa / subme=10 / psy=1 / psy_rd=1.00:0.00 / mixed_ref=1 / me_range=24 / chroma_me=1 / trellis=2 / 8x8dct=1 / cqm=0 / deadzone=21,11 / fast_pskip=1 / chroma_qp_offset=-2 / threads=34 / lookahead_threads=5 / sliced_threads=0 / nr=0 / decimate=1 / interlaced=0 / bluray_compat=0 / constrained_intra=0 / bframes=8 / b_pyramid=2 / b_adapt=2 / b_bias=0 / direct=3 / weightb=1 / open_gop=0 / weightp=2 / keyint=240 / keyint_min=24 / scenecut=40 / intra_refresh=0 / rc_lookahead=60 / rc=crf / mbtree=1 / crf=20.0 / qcomp=0.60 / qpmin=0 / qpmax=69 / qpstep=4 / vbv_maxrate=62500 / vbv_bufsize=78125 / crf_max=0.0 / nal_hrd=none / filler=0 / ip_ratio=1.40 / aq=1:1.00
    Language                                 : English
    Default                                  : Yes
    Forced                                   : No
    Color range                              : Limited
    Color primaries                          : BT.709
    Transfer characteristics                 : BT.709
    Matrix coefficients                      : BT.709
    Statistics Tags Issue                    : mkvmerge v15.0.0 ('Duel with the Devil') 64-bit 2017-12-14 20:56:38 / mkvmerge v15.0.0 ('Duel with the Devil') 64-bit 2017-12-14 20:56:38 / UTC 2017-12-14T11:24:35Z
    FromStats_BitRate                        : 4008903
    FromStats_Duration                       : 01:49:46.580000000
    FromStats_FrameCount                     : 157920
    FromStats_StreamSize                     : 3300620109

    Audio #1
    ID                                       : 2
    Format                                   : AC-3
    Format/Info                              : Audio Coding 3
    Format settings, Endianness              : Big
    Codec ID                                 : A_AC3
    Duration                                 : 1 h 49 min
    Bit rate mode                            : Constant
    Bit rate                                 : 640 kb/s
    Channel(s)                               : 6 channels
    Channel positions                        : Front: L C R, Side: L R, LFE
    Sampling rate                            : 48.0 kHz
    Frame rate                               : 31.250 FPS (1536 SPF)
    Bit depth                                : 16 bits
    Compression mode                         : Lossy
    Delay relative to video                  : 6 ms
    Stream size                              : 503 MiB (10%)
    Title                                    : Latino-AC3
    Language                                 : Spanish
    Service kind                             : Complete Main
    Default                                  : Yes
    Forced                                   : No
    Statistics Tags Issue                    : mkvmerge v15.0.0 ('Duel with the Devil') 64-bit 2017-12-14 20:56:38 / mkvmerge v15.0.0 ('Duel with the Devil') 64-bit 2017-12-14 20:56:38 / UTC 2017-12-14T11:24:35Z
    FromStats_BitRate                        : 640000
    FromStats_Duration                       : 01:49:46.592000000
    FromStats_FrameCount                     : 205831
    FromStats_StreamSize                     : 526927360

    Audio #2
    ID                                       : 3
    Format                                   : DTS
    Format/Info                              : Digital Theater Systems
    Mode                                     : 16
    Format settings, Endianness              : Big
    Codec ID                                 : A_DTS
    Duration                                 : 1 h 49 min
    Bit rate mode                            : Constant
    Bit rate                                 : 1 509 kb/s
    Channel(s)                               : 6 channels
    Channel positions                        : Front: L C R, Side: L R, LFE
    Sampling rate                            : 48.0 kHz
    Frame rate                               : 93.750 FPS (512 SPF)
    Bit depth                                : 16 bits
    Compression mode                         : Lossy
    Stream size                              : 1.16 GiB (24%)
    Title                                    : Ingles-DTS
    Language                                 : English
    Default                                  : No
    Forced                                   : No
    Statistics Tags Issue                    : mkvmerge v15.0.0 ('Duel with the Devil') 64-bit 2017-12-14 20:56:38 / mkvmerge v15.0.0 ('Duel with the Devil') 64-bit 2017-12-14 20:56:38 / UTC 2017-12-14T11:24:35Z
    FromStats_BitRate                        : 1508999
    FromStats_Duration                       : 01:49:46.571000000
    FromStats_FrameCount                     : 617491
    FromStats_StreamSize                     : 1242391892

    Text #1
    ID                                       : 4
    Format                                   : PGS
    Muxing mode                              : zlib
    Codec ID                                 : S_HDMV/PGS
    Codec ID/Info                            : Picture based subtitle format used on BDs/HD-DVDs
    Language                                 : English
    Default                                  : No
    Forced                                   : No
    Statistics Tags Issue                    : mkvmerge v15.0.0 ('Duel with the Devil') 64-bit 2017-12-14 20:56:38 / mkvmerge v15.0.0 ('Duel with the Devil') 64-bit 2017-12-14 20:56:38 / UTC 2017-12-14T11:24:35Z
    FromStats_BitRate                        : 49064
    FromStats_Duration                       : 01:46:34.930000000
    FromStats_FrameCount                     : 3400
    FromStats_StreamSize                     : 39220143

    Text #2
    ID                                       : 5
    Format                                   : PGS
    Muxing mode                              : zlib
    Codec ID                                 : S_HDMV/PGS
    Codec ID/Info                            : Picture based subtitle format used on BDs/HD-DVDs
    Language                                 : Spanish
    Default                                  : No
    Forced                                   : No
    Statistics Tags Issue                    : mkvmerge v15.0.0 ('Duel with the Devil') 64-bit 2017-12-14 20:56:38 / mkvmerge v15.0.0 ('Duel with the Devil') 64-bit 2017-12-14 20:56:38 / UTC 2017-12-14T11:24:35Z
    FromStats_BitRate                        : 31374
    FromStats_Duration                       : 01:47:51.590000000
    FromStats_FrameCount                     : 2210
    FromStats_StreamSize                     : 25380696

    Menu
    00:00:00.000                             : :Chapter 1
    00:05:48.557                             : :Chapter 2
    00:11:21.097                             : :Chapter 3
    00:18:01.205                             : :Chapter 4
    00:26:41.600                             : :Chapter 5
    00:35:10.567                             : :Chapter 6
    00:42:31.382                             : :Chapter 7
    00:48:10.304                             : :Chapter 8
    00:55:32.621                             : :Chapter 9
    01:03:49.993                             : :Chapter 10
    01:09:43.262                             : :Chapter 11
    01:16:20.868                             : :Chapter 12
    01:24:18.011                             : :Chapter 13
    01:30:00.186                             : :Chapter 14
    01:36:06.094                             : :Chapter 15
    01:41:54.483                             : :Chapter 16

  • Peso: 4.76 GiB

Sinopsis

Remake del clasico de los 90 Línea mortal (Flatliners). Un grupo de jóvenes estudiantes de medicina llevan a cabo un experimento que implica una muerte provocada para investigar el más allá y una posterior resucitación. Pero las cosas empiezan a ir mal, ya que no es fácil engañar a la muerte.

Ficha técnica

Video trailer de la película

Enlaces de descarga

Rip de Bluray

Descargar Línea mortal: al límite (2017) Full 1080p Latino




Aportes de DPeliculasHDmega la pass es:dpeliculashdmega.org Aportes de CinemaniaHD la pass es:eatsouthward.com

Películas relacionadas

  • A Ghost Story (2017) 1080p Latino

    2017
    A Ghost Story (2017) 1080p Latino

    0.0 1h 27m 2017

    Un hombre recientemente fallecido regresa a su casa como un fantasma vestido con una sábana blanca para...

    Director: David Lowery

    Género: Drama

    Actores: Yasmina Gutierrez

  • Deep Blue Sea 2 (2018) 1080p Latino

    2018
    Deep Blue Sea 2 (2018) 1080p Latino

    5.0 1h 34m 2018

    La Doctora Misty Calhoun, conservacionista de tiburones, es invitada para asesorar un proyecto secreto...

    Director: Darin Scott

    Género: Acción

    Actores: Rob Mayes

  • Maze Runner prueba de fuego (2015) Full 1080p Latino

    2015
    Maze Runner prueba de fuego (2015) Full 1080p Latino

    5.0 2 h 11 min 2015

    En este nuevo capítulo de la trepidante saga "El Corredor del Laberinto", Thomas (Dylan O'Brien) y el...

    Director: Wes Ball

    Género: Acción

    Actores: Thomas Brodie-Sangster

  • Maze Runner correr o morir (2014) Full 1080p Latino

    2014
    Maze Runner correr o morir (2014) Full 1080p Latino

    5.0 1 h 53 min 2014

    Thomas abre los ojos y se da cuenta que está en un ascensor. Lo extraño es que no recuerda nada, ni...

    Director: Wes Ball

    Género: Acción

    Actores: Will Poulter

  • Se dice de mí (2010) Full 1080p Latino

    2010
    Se dice de mí (2010) Full 1080p Latino

    5.0 1 h 32 min 2010

    El guión, obra del dramaturgo Bert V. Royal, es una versión moderna y en clave estudiantil de “La...

    Director: Will Sandoval

    Género: Comedia

    Actores: Zack Kennedy

Comentarios 7
  • slash - 17 diciembre, 2017

    Gracias,

  • Jhefferson - 16 diciembre, 2017

    Muchas gracias descargando…

  • carlos - 14 diciembre, 2017

    amigo para cuando el demonio 3 estoy esperando en bluray

    • Dpelis2 - 14 diciembre, 2017

      Cuando salga el audio latino. aun no se libera

      • Jonna - 15 diciembre, 2017

        Tal vez agregan en plateada y cuando salga el Audio Latino solo se agrega y se deja para que agreguemos 🙂 pa verla. Saludos

        • Dpelis2 - 15 diciembre, 2017

          Esta ya es la versión final Audio y PGS del Bluray

          • Jonna - 15 diciembre, 2017

            Bueno refiriéndome a Jeepers Creepers 3 (comentario de arriba)

-->