Línea mortal: Al límite (2017) 1080p Latino

2.010 vistas
1 estrella2 estrellas3 estrellas4 estrellas5 estrellas (1 votos, promedio: 3,00 de 5)
Cargando…

Información de Línea mortal: Al límite (2017) 1080p Latino

Datos de la película

  • Calidad: 1080p
  • Audio: Español Latino AC3 2.0 Netflix - Ingles AC3 5.1 BLURAY
  • Subtitulos: Español Latino SRT- FORZADOS SRT
  • Resolución: 1920X800
  • Formato: MKV
  • Codec: H.264
  • Encoder: Dracarys
  • Mediainfo: Clic para Mostrar Datos Ver
  • Format                                   : Matroska
    Format version                           : Version 4 / Version 2
    File size                                : 3.14 GiB
    Duration                                 : 1 h 49 min
    Overall bit rate                         : 4 101 kb/s
    Movie name                               : CinemaniaHDD.com
    Encoded date                             : UTC 2017-12-12 07:51:03 / UTC 2017-12-12T06:45:57Z
    Writing application                      : mkvmerge v15.0.0 ('Duel with the Devil') 64-bit
    Writing library                          : libebml v1.3.5 + libmatroska v1.4.5 / Lavf57.7.2

    Video
    ID                                       : 1
    Format                                   : AVC
    Format/Info                              : Advanced Video Codec
    Format profile                           : [email protected]
    Format settings                          : CABAC / 5 Ref Frames
    Format settings, CABAC                   : Yes
    Format settings, RefFrames               : 5 frames
    Codec ID                                 : V_MPEG4/ISO/AVC
    Duration                                 : 1 h 49 min
    Bit rate                                 : 3 500 kb/s
    Width                                    : 1 920 pixels
    Height                                   : 800 pixels
    Display aspect ratio                     : 2.40:1
    Frame rate mode                          : Constant
    Frame rate                               : 23.976 (24000/1001) FPS
    Color space                              : YUV
    Chroma subsampling                       : 4:2:0
    Bit depth                                : 8 bits
    Scan type                                : Progressive
    Bits/(Pixel*Frame)                       : 0.095
    Stream size                              : 2.59 GiB (82%)
    Title                                    : Línea mortal Al límite (2017) 1080p Latino
    Writing library                          : x264 core 148 r2708 86b7198
    Encoding settings                        : cabac=1 / ref=5 / deblock=1:0:0 / analyse=0x3:0x113 / me=umh / subme=8 / psy=1 / psy_rd=1.00:0.00 / mixed_ref=1 / me_range=16 / chroma_me=1 / trellis=1 / 8x8dct=1 / cqm=0 / deadzone=21,11 / fast_pskip=1 / chroma_qp_offset=-2 / threads=25 / lookahead_threads=4 / sliced_threads=0 / nr=0 / decimate=1 / interlaced=0 / bluray_compat=0 / constrained_intra=0 / bframes=3 / b_pyramid=2 / b_adapt=2 / b_bias=0 / direct=3 / weightb=1 / open_gop=0 / weightp=2 / keyint=240 / keyint_min=24 / scenecut=40 / intra_refresh=0 / rc_lookahead=50 / rc=abr / mbtree=1 / bitrate=3500 / ratetol=1.0 / qcomp=0.60 / qpmin=0 / qpmax=69 / qpstep=4 / vbv_maxrate=62500 / vbv_bufsize=78125 / nal_hrd=none / filler=0 / ip_ratio=1.40 / aq=1:1.00
    Language                                 : English
    Default                                  : Yes
    Forced                                   : No
    Color range                              : Limited
    Color primaries                          : BT.709
    Transfer characteristics                 : BT.709
    Matrix coefficients                      : BT.709
    Statistics Tags Issue                    : mkvmerge v15.0.0 ('Duel with the Devil') 64-bit 2017-12-12 07:51:03 / mkvmerge v15.0.0 ('Duel with the Devil') 64-bit 2017-12-12 07:51:03 / UTC 2017-12-12T06:45:57Z
    FromStats_BitRate                        : 3458647
    FromStats_Duration                       : 01:49:46.539000000
    FromStats_FrameCount                     : 157919
    FromStats_StreamSize                     : 2847564713

    Audio #1
    ID                                       : 2
    Format                                   : AC-3
    Format/Info                              : Audio Coding 3
    Format settings, Endianness              : Big
    Codec ID                                 : A_AC3
    Duration                                 : 1 h 49 min
    Bit rate mode                            : Constant
    Bit rate                                 : 256 kb/s
    Channel(s)                               : 2 channels
    Channel positions                        : Front: L R
    Sampling rate                            : 48.0 kHz
    Frame rate                               : 31.250 FPS (1536 SPF)
    Bit depth                                : 16 bits
    Compression mode                         : Lossy
    Delay relative to video                  : 795 ms
    Stream size                              : 201 MiB (6%)
    Language                                 : Spanish
    Service kind                             : Complete Main
    Default                                  : Yes
    Forced                                   : No
    Statistics Tags Issue                    : mkvmerge v15.0.0 ('Duel with the Devil') 64-bit 2017-12-12 07:51:03 / mkvmerge v15.0.0 ('Duel with the Devil') 64-bit 2017-12-12 07:51:03 / UTC 2017-12-12T06:45:57Z
    FromStats_BitRate                        : 256000
    FromStats_Duration                       : 01:49:44.736000000
    FromStats_FrameCount                     : 205773
    FromStats_StreamSize                     : 210711552

    Audio #2
    ID                                       : 3
    Format                                   : AC-3
    Format/Info                              : Audio Coding 3
    Format settings, Endianness              : Big
    Codec ID                                 : A_AC3
    Duration                                 : 1 h 49 min
    Bit rate mode                            : Constant
    Bit rate                                 : 384 kb/s
    Channel(s)                               : 6 channels
    Channel positions                        : Front: L C R, Side: L R, LFE
    Sampling rate                            : 48.0 kHz
    Frame rate                               : 31.250 FPS (1536 SPF)
    Bit depth                                : 16 bits
    Compression mode                         : Lossy
    Delay relative to video                  : -5 ms
    Stream size                              : 302 MiB (9%)
    Language                                 : English
    Service kind                             : Complete Main
    Default                                  : No
    Forced                                   : No
    Statistics Tags Issue                    : mkvmerge v15.0.0 ('Duel with the Devil') 64-bit 2017-12-12 07:51:03 / mkvmerge v15.0.0 ('Duel with the Devil') 64-bit 2017-12-12 07:51:03 / UTC 2017-12-12T06:45:57Z
    FromStats_BitRate                        : 384000
    FromStats_Duration                       : 01:49:46.560000000
    FromStats_FrameCount                     : 205830
    FromStats_StreamSize                     : 316154880

    Text #1
    ID                                       : 4
    Format                                   : UTF-8
    Codec ID                                 : S_TEXT/UTF8
    Codec ID/Info                            : UTF-8 Plain Text
    Title                                    : Forzados
    Language                                 : Spanish
    Default                                  : Yes
    Forced                                   : Yes
    Statistics Tags Issue                    : mkvmerge v15.0.0 ('Duel with the Devil') 64-bit 2017-12-12 07:51:03 / mkvmerge v15.0.0 ('Duel with the Devil') 64-bit 2017-12-12 07:51:03 / UTC 2017-12-12T06:45:57Z
    FromStats_BitRate                        : 0
    FromStats_Duration                       : 01:21:26.220000000
    FromStats_FrameCount                     : 11
    FromStats_StreamSize                     : 234

    Text #2
    ID                                       : 5
    Format                                   : UTF-8
    Codec ID                                 : S_TEXT/UTF8
    Codec ID/Info                            : UTF-8 Plain Text
    Title                                    : Completos
    Language                                 : Spanish
    Default                                  : No
    Forced                                   : No
    Statistics Tags Issue                    : mkvmerge v15.0.0 ('Duel with the Devil') 64-bit 2017-12-12 07:51:03 / mkvmerge v15.0.0 ('Duel with the Devil') 64-bit 2017-12-12 07:51:03 / UTC 2017-12-12T06:45:57Z
    FromStats_BitRate                        : 43
    FromStats_Duration                       : 01:43:35.174000000
    FromStats_FrameCount                     : 1103
    FromStats_StreamSize                     : 33424

    Menu
    00:00:00.000                             : :00:00:00.000
    00:05:48.557                             : :00:05:48.557
    00:11:21.097                             : :00:11:21.097
    00:18:01.205                             : :00:18:01.205
    00:26:41.600                             : :00:26:41.600
    00:35:10.734                             : :00:35:10.734
    00:42:31.382                             : :00:42:31.382
    00:48:10.971                             : :00:48:10.971
    00:55:32.621                             : :00:55:32.621
    01:03:49.993                             : :01:03:49.993
    01:09:43.262                             : :01:09:43.262
    01:16:20.868                             : :01:16:20.868
    01:24:18.011                             : :01:24:18.011
    01:30:00.186                             : :01:30:00.186
    01:36:06.094                             : :01:36:06.094
    01:41:54.692                             : :01:41:54.692

  • Peso: 3.14 GiB

Sinopsis

Un grupo de jóvenes estudiantes de medicina llevan a cabo un experimento que implica una muerte provocada para investigar el más allá y una posterior resucitación. Pero las cosas empiezan a ir mal, ya que no es fácil engañar a la muerte.

Ficha técnica

Video trailer de la película

Enlaces de descarga

Rip de Bluray

Descargar Línea mortal: Al límite (2017) 1080p Latino




Aportes de DPeliculasHDmega la pass es:dpeliculashdmega.org Aportes de CinemaniaHD la pass es:eatsouthward.com
Guardado en : Ciencia ficción , Drama

Películas relacionadas

  • A Ghost Story (2017) 1080p Latino

    2017
    A Ghost Story (2017) 1080p Latino

    5.0 1h 27m 2017

    Un hombre recientemente fallecido regresa a su casa como un fantasma vestido con una sábana blanca para...

    Director: David Lowery

    Género: Drama

    Actores: Yasmina Gutierrez

  • Deep Blue Sea 2 (2018) 1080p Latino

    2018
    Deep Blue Sea 2 (2018) 1080p Latino

    5.0 1h 34m 2018

    La Doctora Misty Calhoun, conservacionista de tiburones, es invitada para asesorar un proyecto secreto...

    Director: Darin Scott

    Género: Acción

    Actores: Rob Mayes

  • Maze Runner prueba de fuego (2015) Full 1080p Latino

    2015
    Maze Runner prueba de fuego (2015) Full 1080p Latino

    5.0 2 h 11 min 2015

    En este nuevo capítulo de la trepidante saga "El Corredor del Laberinto", Thomas (Dylan O'Brien) y el...

    Director: Wes Ball

    Género: Acción

    Actores: Thomas Brodie-Sangster

  • Maze Runner correr o morir (2014) Full 1080p Latino

    2014
    Maze Runner correr o morir (2014) Full 1080p Latino

    5.0 1 h 53 min 2014

    Thomas abre los ojos y se da cuenta que está en un ascensor. Lo extraño es que no recuerda nada, ni...

    Director: Wes Ball

    Género: Acción

    Actores: Will Poulter

  • Milagros inesperados (1999) Full 1080p Latino

    1999
    Milagros inesperados (1999) Full 1080p Latino

    5.0 3h 9m 1999

    En el sur de los Estados Unidos, en plena Depresión, Paul Edgecomb es un vigilante penitenciario a cargo...

    Director: Susan Malerstein

    Género: Crimen

    Actores: William Sadler

Comentarios 3
  • Jhefferson - 12 diciembre, 2017

    Muchisimas gracias por tan excelentes aportes, quisiera preguntar tambien si habra version plateada de esta pelicula y de dulce venganza para esperar o si no me bajo entonces estas 😀

    • Dpelis2 - 12 diciembre, 2017

      Hola. de dulce venganza posiblemente tarde mas, de Linea mortal en algunas semanas mas Saludos

      • Jhefferson - 12 diciembre, 2017

        Ya veo, muchas gracias por responder 😀

-->