Lara Croft Tomb Raider La cuna de la vida (2003) 4K HDR Latino

229 vistas
1 estrella2 estrellas3 estrellas4 estrellas5 estrellas (Ninguna valoración todavía)
Cargando…

Información de Lara Croft Tomb Raider La cuna de la vida (2003) 4K HDR Latino

Datos de la película

  • Calidad: 4K HDR
  • Audio: Español Latino AC3 5.1 BLURAY - Ingles DTS 5.1 BLURAY
  • Subtitulos: Español Latino PGS - Ingles PGS
  • Resolución: 3840x1634p
  • Formato: MKV
  • Codec: H.265
  • Encoder: Dracarys
  • Mediainfo: Clic para Mostrar Datos Ver
  • Format                                   : Matroska
    Format version                           : Version 4 / Version 2
    File size                                : 29.2 GiB
    Duration                                 : 1 h 57 min
    Overall bit rate                         : 35.6 Mb/s
    Movie name                               : CinemaniaHDD.com
    Encoded date                             : UTC 2018-04-10 03:52:55
    Writing application                      : mkvmerge v15.0.0 ('Duel with the Devil') 64-bit
    Writing library                          : libebml v1.3.5 + libmatroska v1.4.5

    Video
    ID                                       : 1
    Format                                   : HEVC
    Format/Info                              : High Efficiency Video Coding
    Format profile                           : Main [email protected]@High
    Codec ID                                 : V_MPEGH/ISO/HEVC
    Duration                                 : 1 h 57 min
    Bit rate                                 : 33.4 Mb/s
    Width                                    : 3 840 pixels
    Height                                   : 1 634 pixels
    Display aspect ratio                     : 2.35:1
    Frame rate mode                          : Constant
    Frame rate                               : 23.976 (24000/1001) FPS
    Color space                              : YUV
    Chroma subsampling                       : 4:2:0 (Type 2)
    Bit depth                                : 10 bits
    Bits/(Pixel*Frame)                       : 0.222
    Stream size                              : 27.4 GiB (94%)
    Title                                    : Lara Croft Tomb Raider La cuna de la vida (2003) 4K HDR Latino
    Writing library                          : x265 2.6+37-1949157705ce:[Windows][GCC 6.3.0][64 bit] 10bit
    Encoding settings                        : cpuid=1173503 / frame-threads=4 / numa-pools=16 / wpp / no-pmode / no-pme / no-psnr / no-ssim / log-level=2 / input-csp=1 / input-res=3840x1634 / interlace=0 / total-frames=168827 / level-idc=51 / high-tier=1 / uhd-bd=0 / ref=4 / no-allow-non-conformance / repeat-headers / annexb / aud / hrd / info / hash=0 / no-temporal-layers / no-open-gop / min-keyint=24 / keyint=240 / gop-lookahead=0 / bframes=4 / b-adapt=2 / b-pyramid / bframe-bias=0 / rc-lookahead=25 / lookahead-slices=4 / scenecut=40 / radl=0 / no-intra-refresh / ctu=64 / min-cu-size=8 / rect / no-amp / max-tu-size=32 / tu-inter-depth=1 / tu-intra-depth=1 / limit-tu=0 / rdoq-level=2 / dynamic-rd=0.00 / no-ssim-rd / signhide / no-tskip / nr-intra=0 / nr-inter=0 / no-constrained-intra / no-strong-intra-smoothing / max-merge=3 / limit-refs=3 / limit-modes / me=3 / subme=3 / merange=57 / temporal-mvp / weightp / no-weightb / no-analyze-src-pics / deblock=-3:-3 / no-sao / no-sao-non-deblock / rd=4 / no-early-skip / rskip / no-fast-intra / no-tskip-fast / no-cu-lossless / no-b-intra / no-splitrd-skip / rdpenalty=0 / psy-rd=2.00 / psy-rdoq=1.00 / no-rd-refine / no-lossless / cbqpoffs=0 / crqpoffs=0 / rc=crf / crf=17.0 / qcomp=0.60 / qpstep=4 / stats-write=0 / stats-read=0 / vbv-maxrate=160000 / vbv-bufsize=160000 / vbv-init=0.9 / crf-max=0.0 / crf-min=0.0 / ipratio=1.40 / pbratio=1.30 / aq-mode=1 / aq-strength=1.00 / cutree / zone-count=0 / no-strict-cbr / qg-size=32 / no-rc-grain / qpmax=69 / qpmin=0 / no-const-vbv / sar=1 / overscan=0 / videoformat=5 / range=0 / colorprim=9 / transfer=16 / colormatrix=9 / chromaloc=1 / chromaloc-top=2 / chromaloc-bottom=2 / display-window=0 / master-display=G(13250,34500)B(7500,3000)R(34000,16000)WP(15635,16450)L(10000000,1) / max-cll=0,0 / min-luma=0 / max-luma=1023 / log2-max-poc-lsb=8 / vui-timing-info / vui-hrd-info / slices=1 / opt-qp-pps / opt-ref-list-length-pps / no-multi-pass-opt-rps / scenecut-bias=0.05 / no-opt-cu-delta-qp / no-aq-motion / hdr / hdr-opt / no-dhdr10-opt / analysis-reuse-level=5 / scale-factor=0 / refine-intra=0 / refine-inter=0 / refine-mv=0 / no-limit-sao / ctu-info=0 / no-lowpass-dct / refine-mv-type=0 / copy-pic=1
    Language                                 : English
    Default                                  : Yes
    Forced                                   : No
    Color range                              : Limited
    Color primaries                          : BT.2020
    Transfer characteristics                 : PQ
    Matrix coefficients                      : BT.2020 non-constant
    Mastering display color primaries        : R: x=0.680000 y=0.320000, G: x=0.265000 y=0.690000, B: x=0.150000 y=0.060000, White point: x=0.312700 y=0.329000
    Mastering display luminance              : min: 0.0001 cd/m2, max: 1000.0000 cd/m2

    Audio #1
    ID                                       : 2
    Format                                   : AC-3
    Format/Info                              : Audio Coding 3
    Format settings, Endianness              : Big
    Codec ID                                 : A_AC3
    Duration                                 : 1 h 57 min
    Bit rate mode                            : Constant
    Bit rate                                 : 640 kb/s
    Channel(s)                               : 6 channels
    Channel positions                        : Front: L C R, Side: L R, LFE
    Sampling rate                            : 48.0 kHz
    Frame rate                               : 31.250 FPS (1536 SPF)
    Bit depth                                : 16 bits
    Compression mode                         : Lossy
    Stream size                              : 537 MiB (2%)
    Language                                 : Spanish
    Service kind                             : Complete Main
    Default                                  : Yes
    Forced                                   : No

    Audio #2
    ID                                       : 3
    Format                                   : DTS
    Format/Info                              : Digital Theater Systems
    Mode                                     : 16
    Format settings, Endianness              : Big
    Codec ID                                 : A_DTS
    Duration                                 : 1 h 57 min
    Bit rate mode                            : Constant
    Bit rate                                 : 1 509 kb/s
    Channel(s)                               : 6 channels
    Channel positions                        : Front: L C R, Side: L R, LFE
    Sampling rate                            : 48.0 kHz
    Frame rate                               : 93.750 FPS (512 SPF)
    Bit depth                                : 24 bits
    Compression mode                         : Lossy
    Stream size                              : 1.24 GiB (4%)
    Language                                 : English
    Default                                  : No
    Forced                                   : No

    Text #1
    ID                                       : 4
    Format                                   : UTF-8
    Codec ID                                 : S_TEXT/UTF8
    Codec ID/Info                            : UTF-8 Plain Text
    Duration                                 : 58 min 38 s
    Bit rate                                 : 0 b/s
    Count of elements                        : 9
    Stream size                              : 225 Bytes (0%)
    Title                                    : Forzados
    Language                                 : Spanish
    Default                                  : Yes
    Forced                                   : Yes

    Text #2
    ID                                       : 5
    Format                                   : PGS
    Muxing mode                              : zlib
    Codec ID                                 : S_HDMV/PGS
    Codec ID/Info                            : Picture based subtitle format used on BDs/HD-DVDs
    Duration                                 : 1 h 47 min
    Bit rate                                 : 25.1 kb/s
    Count of elements                        : 2030
    Stream size                              : 19.3 MiB (0%)
    Language                                 : English
    Default                                  : No
    Forced                                   : No

    Text #3
    ID                                       : 6
    Format                                   : PGS
    Muxing mode                              : zlib
    Codec ID                                 : S_HDMV/PGS
    Codec ID/Info                            : Picture based subtitle format used on BDs/HD-DVDs
    Duration                                 : 1 h 46 min
    Bit rate                                 : 19.8 kb/s
    Count of elements                        : 1406
    Stream size                              : 15.1 MiB (0%)
    Language                                 : Spanish
    Default                                  : No
    Forced                                   : No

    Menu
    00:00:00.000                             : en:Chapter 01
    00:03:06.895                             : en:Chapter 02
    00:06:43.111                             : en:Chapter 03
    00:11:17.468                             : en:Chapter 04
    00:16:55.097                             : en:Chapter 05
    00:20:41.240                             : en:Chapter 06
    00:24:15.454                             : en:Chapter 07
    00:27:43.995                             : en:Chapter 08
    00:31:54.078                             : en:Chapter 09
    00:34:42.580                             : en:Chapter 10
    00:37:14.941                             : en:Chapter 11
    00:42:39.265                             : en:Chapter 12
    00:47:59.585                             : en:Chapter 13
    00:51:11.902                             : en:Chapter 14
    00:56:10.200                             : en:Chapter 15
    01:00:09.397                             : en:Chapter 16
    01:06:28.985                             : en:Chapter 17
    01:10:02.990                             : en:Chapter 18
    01:14:33.969                             : en:Chapter 19
    01:19:35.270                             : en:Chapter 20
    01:24:03.288                             : en:Chapter 21
    01:28:51.159                             : en:Chapter 22
    01:35:14.959                             : en:Chapter 23
    01:40:19.763                             : en:Chapter 24
    01:45:33.076                             : en:Chapter 25
    01:47:46.209                             : en:Chapter 26

  • Peso: 29.2 GiB

Sinopsis

Enfrentándose a nuevos y mayores peligros y desafíos, Lara Croft muestra sus poderes físicos en otra trepidante aventura. La intrépida heroína viajará a un templo sumergido bajo el agua en busca de la legendaria “Caja de Pandora”, pero antes de que llegue, un banda de criminales chinos, liderados por Chen Lo, consigue apoderarse del preciado objeto. Lara tendrá que detenerlos antes de que lo usen con fines maléficos.

Ficha técnica

  • Titulo original: Lara Croft Tomb Raider: The Cradle of Life
  • Fecha de lanzamiento: 21-07-2003 (Germany, Japan, United Kingdom, United States of America)
  • Director: Jan de Bont
  • Género: 4K HDR, 4K UHD, Acción, Aventura, Fantasía, Suspense
  • Puntuación: 0.0 0 votos
  • Duración:
    1 h 57 min

Video trailer de la película

Enlaces de descarga

Rip de Bluray

Descargar Lara Croft Tomb Raider La cuna de la vida (2003) 4K HDR Latino




Aportes de DPeliculasHDmega la pass es:dpeliculashdmega.org Aportes de CinemaniaHD la pass es:eatsouthward.com
Guardado en : 4K HDR , 4K UHD , Acción , Aventura , Fantasía , Suspense

Películas relacionadas

  • Peter Rabbit (2018) 1080p Latino

    2018
    Peter Rabbit (2018) 1080p Latino

    5.0 1h 35m 2018

    Peter Rabbit no es un conejo cualquiera. Es un rebelde travieso y aventurero que viste camisa azul y...

    Director: Will Gluck

    Género: Animación

    Actores: Will Reichelt

  • Ash vs. Evil Dead (2017) Temporada 3 WEBDL Latino

    2015
    Ash vs. Evil Dead (2017) Temporada 3 WEBDL Latino

    5.0 0h 43m 2015

    Esta temporada 3 seguirá, por tanto, contando con la participación de Lucy Lawless en el papel de la...

    Director: Sam Raimi

    Género: Acción

    Actores: Ray Santiago

  • Hostiles (2017) 1080p Subtitulado

    2017
    Hostiles (2017) 1080p Subtitulado

    0.0 2h 13m 2017

    El legendario capitán del ejército Joseph J. Blocker (Christian Bale) se compromete para acompañar...

    Director: Xanthus Valan

    Género: Aventura

    Actores: Xavier Horsechief

  • El caza recompensas (2010) Full 1080p Latino

    2010
    El caza recompensas (2010) Full 1080p Latino

    5.0 1 h 50 min 2010

    Milo Boyd (Gerard Butler) es un cazarrecompensas que está viviendo una mala racha, cuando le asignan...

    Director: Andy Tennant

    Género: Acción

    Actores: Siobhan Fallon

Comentarios 0
-->