La vida secreta de tus mascotas (2016) Full 1080p Latino

935 vistas
1 estrella2 estrellas3 estrellas4 estrellas5 estrellas (1 votos, promedio: 5,00 de 5)
Cargando…

Información de La vida secreta de tus mascotas (2016) Full 1080p Latino

Datos de la película

  • Calidad: Full 1080p
  • Audio: Español Latino AC3 5.1 BLURAY - Ingles AC3 5.1 BLURAY
  • Subtitulos: Español Latino PGS - Ingles PGS
  • Resolución: 1920X1080
  • Formato: MKV
  • Codec: H.264
  • Encoder: Dracarys
  • Mediainfo: Clic para Mostrar Datos Ver
  • Format                                   : Matroska
    Format version                           : Version 4 / Version 2
    File size                                : 3.48 GiB
    Duration                                 : 1 h 26 min
    Overall bit rate                         : 5 767 kb/s
    Movie name                               : CinemaniaHDD.com
    Encoded date                             : UTC 2017-12-23 06:53:44 / UTC 2017-12-21T19:26:56Z
    Writing application                      : mkvmerge v15.0.0 ('Duel with the Devil') 64-bit
    Writing library                          : libebml v1.3.5 + libmatroska v1.4.5 / Lavf57.7.2

    Video
    ID                                       : 1
    Format                                   : AVC
    Format/Info                              : Advanced Video Codec
    Format profile                           : [email protected]
    Format settings                          : CABAC / 4 Ref Frames
    Format settings, CABAC                   : Yes
    Format settings, RefFrames               : 4 frames
    Codec ID                                 : V_MPEG4/ISO/AVC
    Duration                                 : 1 h 26 min
    Bit rate                                 : 4 564 kb/s
    Width                                    : 1 920 pixels
    Height                                   : 1 080 pixels
    Display aspect ratio                     : 16:9
    Frame rate mode                          : Constant
    Frame rate                               : 23.976 (24000/1001) FPS
    Color space                              : YUV
    Chroma subsampling                       : 4:2:0
    Bit depth                                : 8 bits
    Scan type                                : Progressive
    Bits/(Pixel*Frame)                       : 0.092
    Stream size                              : 2.76 GiB (79%)
    Title                                    : La vida secreta de tus mascotas (2016) Full 1080p Latino
    Writing library                          : x264 core 148 r2708 86b7198
    Encoding settings                        : cabac=1 / ref=4 / deblock=1:0:0 / analyse=0x3:0x133 / me=esa / subme=10 / psy=1 / psy_rd=1.00:0.00 / mixed_ref=1 / me_range=24 / chroma_me=1 / trellis=2 / 8x8dct=1 / cqm=0 / deadzone=21,11 / fast_pskip=1 / chroma_qp_offset=-2 / threads=34 / lookahead_threads=5 / sliced_threads=0 / nr=0 / decimate=1 / interlaced=0 / bluray_compat=0 / constrained_intra=0 / bframes=8 / b_pyramid=2 / b_adapt=2 / b_bias=0 / direct=3 / weightb=1 / open_gop=0 / weightp=2 / keyint=240 / keyint_min=24 / scenecut=40 / intra_refresh=0 / rc_lookahead=60 / rc=crf / mbtree=1 / crf=20.0 / qcomp=0.60 / qpmin=0 / qpmax=69 / qpstep=4 / vbv_maxrate=62500 / vbv_bufsize=78125 / crf_max=0.0 / nal_hrd=none / filler=0 / ip_ratio=1.40 / aq=1:1.00
    Language                                 : English
    Default                                  : Yes
    Forced                                   : No
    Color range                              : Limited
    Color primaries                          : BT.709
    Transfer characteristics                 : BT.709
    Matrix coefficients                      : BT.709
    Statistics Tags Issue                    : mkvmerge v15.0.0 ('Duel with the Devil') 64-bit 2017-12-23 06:53:44 / mkvmerge v15.0.0 ('Duel with the Devil') 64-bit 2017-12-23 06:53:44 / UTC 2017-12-21T19:26:56Z
    FromStats_BitRate                        : 4651646
    FromStats_Duration                       : 01:26:27.182000000
    FromStats_FrameCount                     : 124368
    FromStats_StreamSize                     : 3016116901

    Audio #1
    ID                                       : 2
    Format                                   : AC-3
    Format/Info                              : Audio Coding 3
    Format settings, Endianness              : Big
    Codec ID                                 : A_EAC3
    Duration                                 : 1 h 26 min
    Bit rate mode                            : Constant
    Bit rate                                 : 448 kb/s
    Channel(s)                               : 6 channels
    Channel positions                        : Front: L C R, Side: L R, LFE
    Sampling rate                            : 48.0 kHz
    Frame rate                               : 31.250 FPS (1536 SPF)
    Bit depth                                : 16 bits
    Compression mode                         : Lossy
    Stream size                              : 277 MiB (8%)
    Language                                 : Spanish
    Service kind                             : Complete Main
    Default                                  : Yes
    Forced                                   : No
    Statistics Tags Issue                    : mkvmerge v15.0.0 ('Duel with the Devil') 64-bit 2017-12-23 06:53:44 / mkvmerge v15.0.0 ('Duel with the Devil') 64-bit 2017-12-23 06:53:44 / UTC 2017-12-21T19:26:56Z
    FromStats_BitRate                        : 448000
    FromStats_Duration                       : 01:26:27.200000000
    FromStats_FrameCount                     : 162100
    FromStats_StreamSize                     : 290483200

    Audio #2
    ID                                       : 3
    Format                                   : AC-3
    Format/Info                              : Audio Coding 3
    Format settings, Endianness              : Big
    Codec ID                                 : A_AC3
    Duration                                 : 1 h 26 min
    Bit rate mode                            : Constant
    Bit rate                                 : 640 kb/s
    Channel(s)                               : 6 channels
    Channel positions                        : Front: L C R, Side: L R, LFE
    Sampling rate                            : 48.0 kHz
    Frame rate                               : 31.250 FPS (1536 SPF)
    Bit depth                                : 16 bits
    Compression mode                         : Lossy
    Stream size                              : 396 MiB (11%)
    Language                                 : English
    Service kind                             : Complete Main
    Default                                  : No
    Forced                                   : No
    Statistics Tags Issue                    : mkvmerge v15.0.0 ('Duel with the Devil') 64-bit 2017-12-23 06:53:44 / mkvmerge v15.0.0 ('Duel with the Devil') 64-bit 2017-12-23 06:53:44 / UTC 2017-12-21T19:26:56Z
    FromStats_BitRate                        : 640000
    FromStats_Duration                       : 01:26:27.200000000
    FromStats_FrameCount                     : 162100
    FromStats_StreamSize                     : 414976000

    Text #1
    ID                                       : 4
    Format                                   : PGS
    Muxing mode                              : zlib
    Codec ID                                 : S_HDMV/PGS
    Codec ID/Info                            : Picture based subtitle format used on BDs/HD-DVDs
    Title                                    : Forzados
    Language                                 : Spanish
    Default                                  : Yes
    Forced                                   : Yes
    Statistics Tags Issue                    : mkvmerge v15.0.0 ('Duel with the Devil') 64-bit 2017-12-23 06:53:44 / mkvmerge v15.0.0 ('Duel with the Devil') 64-bit 2017-12-23 06:53:44 / UTC 2017-12-21T19:26:56Z
    FromStats_BitRate                        : 446
    FromStats_Duration                       : 01:22:02.126000000
    FromStats_FrameCount                     : 34
    FromStats_StreamSize                     : 274926

    Text #2
    ID                                       : 5
    Format                                   : PGS
    Muxing mode                              : zlib
    Codec ID                                 : S_HDMV/PGS
    Codec ID/Info                            : Picture based subtitle format used on BDs/HD-DVDs
    Language                                 : Spanish
    Default                                  : No
    Forced                                   : No
    Statistics Tags Issue                    : mkvmerge v15.0.0 ('Duel with the Devil') 64-bit 2017-12-23 06:53:44 / mkvmerge v15.0.0 ('Duel with the Devil') 64-bit 2017-12-23 06:53:44 / UTC 2017-12-21T19:26:56Z
    FromStats_BitRate                        : 31607
    FromStats_Duration                       : 01:24:58.844000000
    FromStats_FrameCount                     : 2521
    FromStats_StreamSize                     : 20144924

    Text #3
    ID                                       : 6
    Format                                   : PGS
    Muxing mode                              : zlib
    Codec ID                                 : S_HDMV/PGS
    Codec ID/Info                            : Picture based subtitle format used on BDs/HD-DVDs
    Language                                 : English
    Default                                  : No
    Forced                                   : No
    Statistics Tags Issue                    : mkvmerge v15.0.0 ('Duel with the Devil') 64-bit 2017-12-23 06:53:44 / mkvmerge v15.0.0 ('Duel with the Devil') 64-bit 2017-12-23 06:53:44 / UTC 2017-12-21T19:26:56Z
    FromStats_BitRate                        : 44546
    FromStats_Duration                       : 01:26:00.072000000
    FromStats_FrameCount                     : 3390
    FromStats_StreamSize                     : 28733164

    Menu
    00:00:00.000                             : :Chapter 1
    00:05:05.847                             : :Chapter 2
    00:09:24.064                             : :Chapter 3
    00:13:18.381                             : :Chapter 4
    00:18:03.666                             : :Chapter 5
    00:22:14.458                             : :Chapter 6
    00:28:51.855                             : :Chapter 7
    00:32:54.306                             : :Chapter 8
    00:36:55.839                             : :Chapter 9
    00:42:27.295                             : :Chapter 10
    00:44:46.767                             : :Chapter 11
    00:50:21.227                             : :Chapter 12
    00:54:45.407                             : :Chapter 13
    00:59:33.987                             : :Chapter 14
    01:02:36.211                             : :Chapter 15
    01:07:12.362                             : :Chapter 16
    01:13:06.841                             : :Chapter 17
    01:16:04.602                             : :Chapter 18
    01:18:48.057                             : :Chapter 19
    01:19:58.627                             : :Chapter 20

  • Peso: 3.48 GiB

Sinopsis

Comedia acerca de la vida que llevan nuestras mascotas cuando cerramos la puerta detrás de nosotros camino del trabajo o del colegio.

Ficha técnica

Video trailer de la película

Enlaces de descarga

Rip de Bluray

Descargar La vida secreta de tus mascotas (2016) Full 1080p Latino




Aportes de DPeliculasHDmega la pass es:dpeliculashdmega.org Aportes de CinemaniaHD la pass es:eatsouthward.com

Películas relacionadas

  • Peter Rabbit (2018) 1080p Latino

    2018
    Peter Rabbit (2018) 1080p Latino

    5.0 1h 35m 2018

    Peter Rabbit no es un conejo cualquiera. Es un rebelde travieso y aventurero que viste camisa azul y...

    Director: Will Gluck

    Género: Animación

    Actores: Will Reichelt

  • Ash vs. Evil Dead (2017) Temporada 3 WEBDL Latino

    2015
    Ash vs. Evil Dead (2017) Temporada 3 WEBDL Latino

    5.0 0h 43m 2015

    Esta temporada 3 seguirá, por tanto, contando con la participación de Lucy Lawless en el papel de la...

    Director: Sam Raimi

    Género: Acción

    Actores: Ray Santiago

  • Hostiles (2017) 1080p Subtitulado

    2017
    Hostiles (2017) 1080p Subtitulado

    0.0 2h 13m 2017

    El legendario capitán del ejército Joseph J. Blocker (Christian Bale) se compromete para acompañar...

    Director: Xanthus Valan

    Género: Aventura

    Actores: Xavier Horsechief

  • Ahora los padres son ellos (2010) Full 1080p Latino

    2010
    Ahora los padres son ellos (2010) Full 1080p Latino

    5.0 1h 37m 2010

    Han tenido que pasar diez años, dos pequeños Fockers con su mujer, Pam (Polo) e incontables obstáculos...

    Director: Paul Weitz

    Género: Comedia

    Actores: Teri Polo

Comentarios 2
  • Tio Higuera - 24 diciembre, 2017

    Buena pelicula. Gracias.
    con estas fechas decembrinas, tendrán la de “How the Grinch Stole Christmas” o El Grinch. y la de “the polar express” ?

    • dpelis - 25 diciembre, 2017

      se agregan a mediados de la semana

-->