La película Pokemon ¡Te elijo a ti! (2017) Full 1080p Latino

1.789 vistas
1 estrella2 estrellas3 estrellas4 estrellas5 estrellas (Ninguna valoración todavía)
Cargando…

Información de La película Pokemon ¡Te elijo a ti! (2017) Full 1080p Latino

Datos de la película

  • Calidad: Full 1080p
  • Audio: Se especifica abajo de la Sinopsis
  • Subtitulos: No
  • Resolución: 1920X1080p
  • Formato: MKV
  • Codec: H.264
  • Encoder: CinemaniaHD
  • Mediainfo: Clic para Mostrar Datos Ver
  • Format                                   : Matroska
    Format version                           : Version 4 / Version 2
    File size                                : 3.22 GiB
    Duration                                 : 1 h 37 min
    Overall bit rate                         : 4 756 kb/s
    Movie name                               : CinemaniaHDD.com
    Encoded date                             : UTC 2017-12-27 05:04:10 / UTC 2017-12-27T02:08:52Z
    Writing application                      : mkvmerge v15.0.0 ('Duel with the Devil') 64-bit
    Writing library                          : libebml v1.3.5 + libmatroska v1.4.5 / Lavf57.7.2

    Video
    ID                                       : 1
    Format                                   : AVC
    Format/Info                              : Advanced Video Codec
    Format profile                           : [email protected]
    Format settings                          : CABAC / 4 Ref Frames
    Format settings, CABAC                   : Yes
    Format settings, RefFrames               : 4 frames
    Codec ID                                 : V_MPEG4/ISO/AVC
    Duration                                 : 1 h 37 min
    Bit rate                                 : 3 637 kb/s
    Width                                    : 1 920 pixels
    Height                                   : 1 080 pixels
    Display aspect ratio                     : 16:9
    Frame rate mode                          : Constant
    Frame rate                               : 23.976 (24000/1001) FPS
    Color space                              : YUV
    Chroma subsampling                       : 4:2:0
    Bit depth                                : 8 bits
    Scan type                                : Progressive
    Bits/(Pixel*Frame)                       : 0.073
    Stream size                              : 2.46 GiB (76%)
    Title                                    : La película Pokemon ¡Te elijo a ti! (2017) Full 1080p Latino
    Writing library                          : x264 core 148 r2708 86b7198
    Encoding settings                        : cabac=1 / ref=4 / deblock=1:0:0 / analyse=0x3:0x133 / me=esa / subme=10 / psy=1 / psy_rd=1.00:0.00 / mixed_ref=1 / me_range=24 / chroma_me=1 / trellis=2 / 8x8dct=1 / cqm=0 / deadzone=21,11 / fast_pskip=1 / chroma_qp_offset=-2 / threads=34 / lookahead_threads=5 / sliced_threads=0 / nr=0 / decimate=1 / interlaced=0 / bluray_compat=0 / constrained_intra=0 / bframes=8 / b_pyramid=2 / b_adapt=2 / b_bias=0 / direct=3 / weightb=1 / open_gop=0 / weightp=2 / keyint=240 / keyint_min=24 / scenecut=40 / intra_refresh=0 / rc_lookahead=60 / rc=crf / mbtree=1 / crf=20.0 / qcomp=0.60 / qpmin=0 / qpmax=69 / qpstep=4 / vbv_maxrate=62500 / vbv_bufsize=78125 / crf_max=0.0 / nal_hrd=none / filler=0 / ip_ratio=1.40 / aq=1:1.00
    Language                                 : English
    Default                                  : Yes
    Forced                                   : No
    Color range                              : Limited
    Color primaries                          : BT.709
    Transfer characteristics                 : BT.709
    Matrix coefficients                      : BT.709
    Statistics Tags Issue                    : mkvmerge v15.0.0 ('Duel with the Devil') 64-bit 2017-12-27 05:04:10 / mkvmerge v15.0.0 ('Duel with the Devil') 64-bit 2017-12-27 05:04:10 / UTC 2017-12-27T02:08:52Z
    FromStats_BitRate                        : 3730692
    FromStats_Duration                       : 01:37:00.315000000
    FromStats_FrameCount                     : 139548
    FromStats_StreamSize                     : 2714225911

    Audio #1
    ID                                       : 2
    Format                                   : AC-3
    Format/Info                              : Audio Coding 3
    Format settings, Endianness              : Big
    Codec ID                                 : A_AC3
    Duration                                 : 1 h 37 min
    Bit rate mode                            : Constant
    Bit rate                                 : 384 kb/s
    Channel(s)                               : 6 channels
    Channel positions                        : Front: L C R, Side: L R, LFE
    Sampling rate                            : 48.0 kHz
    Frame rate                               : 31.250 FPS (1536 SPF)
    Bit depth                                : 16 bits
    Compression mode                         : Lossy
    Delay relative to video                  : 13 s 100 ms
    Stream size                              : 266 MiB (8%)
    Language                                 : Spanish
    Service kind                             : Complete Main
    Default                                  : Yes
    Forced                                   : No
    Statistics Tags Issue                    : mkvmerge v15.0.0 ('Duel with the Devil') 64-bit 2017-12-27 05:04:10 / mkvmerge v15.0.0 ('Duel with the Devil') 64-bit 2017-12-27 05:04:10 / UTC 2017-12-27T02:08:52Z
    FromStats_BitRate                        : 384000
    FromStats_Duration                       : 01:36:45.184000000
    FromStats_FrameCount                     : 181412
    FromStats_StreamSize                     : 278648832

    Audio #2
    ID                                       : 3
    Format                                   : AC-3
    Format/Info                              : Audio Coding 3
    Format settings, Endianness              : Big
    Codec ID                                 : A_AC3
    Duration                                 : 1 h 37 min
    Bit rate mode                            : Constant
    Bit rate                                 : 640 kb/s
    Channel(s)                               : 6 channels
    Channel positions                        : Front: L C R, Side: L R, LFE
    Sampling rate                            : 48.0 kHz
    Frame rate                               : 31.250 FPS (1536 SPF)
    Bit depth                                : 16 bits
    Compression mode                         : Lossy
    Stream size                              : 444 MiB (13%)
    Language                                 : Japanese
    Service kind                             : Complete Main
    Default                                  : No
    Forced                                   : No
    Statistics Tags Issue                    : mkvmerge v15.0.0 ('Duel with the Devil') 64-bit 2017-12-27 05:04:10 / mkvmerge v15.0.0 ('Duel with the Devil') 64-bit 2017-12-27 05:04:10 / UTC 2017-12-27T02:08:52Z
    FromStats_BitRate                        : 640000
    FromStats_Duration                       : 01:37:00.320000000
    FromStats_FrameCount                     : 181885
    FromStats_StreamSize                     : 465625600

    Menu
    00:00:00.000                             : :Chapter 1
    00:06:17.294                             : :Chapter 2
    00:12:53.773                             : :Chapter 3
    00:15:16.082                             : :Chapter 4
    00:24:30.928                             : :Chapter 5
    00:39:16.646                             : :Chapter 6
    00:57:25.776                             : :Chapter 7
    01:03:53.830                             : :Chapter 8
    01:11:18.983                             : :Chapter 9
    01:18:29.121                             : :Chapter 10
    01:30:56.451                             : :Chapter 11
    01:32:21.536                             : :Chapter 12

  • Peso: 3.22 GiB

Sinopsis

Película de la saga animada número 20 dirigida por Kuhiniko que vuelve a los orígenes del universo Pokemon, donde Ash Ketchum, un niño de diez años y su inseparable amigo Pikachu irán en busca de retos que lleven al entrenador a ser el mejor del mundo. Su objetivo: La Liga de Kanto, pero primero han de superar los ya conocidos gimnasios.

 

Audios: Latino AC3 5.1 iTunes – Japones AC3 5.1 Bluray

Ficha técnica

Video trailer de la película

Enlaces de descarga

Rip de Bluray

Descargar La película Pokemon ¡Te elijo a ti! (2017) Full 1080p Latino




Aportes de DPeliculasHDmega la pass es:dpeliculashdmega.org Aportes de CinemaniaHD la pass es:eatsouthward.com

Películas relacionadas

  • Dude (2018) NF 1080p Latino

    2018
    Dude (2018) NF 1080p Latino

    0.0 1h 30m 2018

    Cuatro mejores amigas se tienen que enfrentar a su nueva vida. Las dos últimas semanas de instituto...

    Director: Olivia Milch

    Género: Comedia

    Actores: Sydney Lucas

  • A Ghost Story (2017) 1080p Latino

    2017
    A Ghost Story (2017) 1080p Latino

    5.0 1h 27m 2017

    Un hombre recientemente fallecido regresa a su casa como un fantasma vestido con una sábana blanca para...

    Director: David Lowery

    Género: Drama

    Actores: Yasmina Gutierrez

  • Gun shy (2017) 1080p Latino

    2017
    Gun shy (2017) 1080p Latino

    0.0 1h 31m 2017

    Basada en la novela homónima de Mark Haskell Smith. Turk Henry es una antigua estrella de rock con sobrepeso...

    Director: Simon West

    Género: Acción

    Actores: Sebastián Apiolaza

  • Maze Runner prueba de fuego (2015) Full 1080p Latino

    2015
    Maze Runner prueba de fuego (2015) Full 1080p Latino

    5.0 2 h 11 min 2015

    En este nuevo capítulo de la trepidante saga "El Corredor del Laberinto", Thomas (Dylan O'Brien) y el...

    Director: Wes Ball

    Género: Acción

    Actores: Thomas Brodie-Sangster

  • Maze Runner correr o morir (2014) Full 1080p Latino

    2014
    Maze Runner correr o morir (2014) Full 1080p Latino

    5.0 1 h 53 min 2014

    Thomas abre los ojos y se da cuenta que está en un ascensor. Lo extraño es que no recuerda nada, ni...

    Director: Wes Ball

    Género: Acción

    Actores: Will Poulter

Comentarios 7
  • jorel - 18 marzo, 2018

    Una pena que no haya subs,, en idiona original(con subs) es genial, este latino no le llega a los talones..

    • dpelis - 18 marzo, 2018

      si lastima amigo

  • Seiyayin - 28 enero, 2018

    Hola Cinemania!
    Me gustaría saber si van a subir todas las pelis de Pokemon en plateado incluyendo los extras.
    Gracias 🙂

    • Dracarys - 29 enero, 2018

      No se sabe si se subiran

  • Tio Higuera - 08 enero, 2018

    Todo bien. Gracias.

  • snj - 28 diciembre, 2017

    Hola
    no saben cuando tendrá subtítulos?

    • dpelis - 29 diciembre, 2017

      no trae, el bluray

-->