La isla de los monstruos (2017) WEBDL 1080p Latino

1.249 vistas
1 estrella2 estrellas3 estrellas4 estrellas5 estrellas (Ninguna valoración todavía)
Cargando…

Información de La isla de los monstruos (2017) WEBDL 1080p Latino

Datos de la película

  • Calidad: WEBDL
  • Audio: Se especifica abajo de la Sinopsis
  • Subtitulos: Español Latino SRT
  • Resolución: 1920x1080p
  • Formato: MKV
  • Codec: H.264
  • Encoder: Dpelis
  • Mediainfo: Clic para Mostrar Datos Ver
  • Isla Calaca (2017) WEBDL 1080p Latino.mkv
    Format                      : Matroska
    Format version              : Version 4 / Version 2
    File size                   : 3.34 GiB
    Duration                    : 1 h 20 min
    Overall bit rate            : 5 933 kb/s
    Movie name                  : DPeliculasHDMega.ORG
    Encoded date                : UTC 2017-09-23 20:19:24
    Writing application         : mkvmerge v10.0.0 ('To Drown In You') 64bit
    Writing library             : libebml v1.3.4 + libmatroska v1.4.5

    Video
    ID                          : 1
    Format                      : AVC
    Format/Info                 : Advanced Video Codec
    Format profile              : [email protected]
    Format settings, CABAC      : Yes
    Format settings, RefFrames  : 4 frames
    Codec ID                    : V_MPEG4/ISO/AVC
    Duration                    : 1 h 20 min
    Bit rate                    : 5 102 kb/s
    Width                       : 1 920 pixels
    Height                      : 1 080 pixels
    Display aspect ratio        : 16:9
    Frame rate mode             : Constant
    Frame rate                  : 23.976 (24000/1001) FPS
    Color space                 : YUV
    Chroma subsampling          : 4:2:0
    Bit depth                   : 8 bits
    Scan type                   : Progressive
    Bits/(Pixel*Frame)          : 0.103
    Stream size                 : 2.87 GiB (86%)
    Language                    : English
    Default                     : Yes
    Forced                      : No
    Color range                 : Limited
    Color primaries             : BT.709
    Transfer characteristics    : BT.709
    Matrix coefficients         : BT.709

    Audio #1
    ID                          : 2
    Format                      : AC-3
    Format/Info                 : Audio Coding 3
    Format settings, Endianness : Big
    Codec ID                    : A_AC3
    Duration                    : 1 h 20 min
    Bit rate mode               : Constant
    Bit rate                    : 448 kb/s
    Channel(s)                  : 6 channels
    Channel positions           : Front: L C R, Side: L R, LFE
    Sampling rate               : 48.0 kHz
    Frame rate                  : 31.250 FPS (1536 SPF)
    Bit depth                   : 16 bits
    Compression mode            : Lossy
    Delay relative to video     : 10 s 280 ms
    Stream size                 : 258 MiB (8%)
    Language                    : Spanish
    Service kind                : Complete Main
    Default                     : Yes
    Forced                      : No

    Audio #2
    ID                          : 3
    Format                      : AC-3
    Format/Info                 : Audio Coding 3
    Format settings, Endianness : Big
    Codec ID                    : A_AC3
    Duration                    : 1 h 20 min
    Bit rate mode               : Constant
    Bit rate                    : 384 kb/s
    Channel(s)                  : 6 channels
    Channel positions           : Front: L C R, Side: L R, LFE
    Sampling rate               : 48.0 kHz
    Frame rate                  : 31.250 FPS (1536 SPF)
    Bit depth                   : 16 bits
    Compression mode            : Lossy
    Stream size                 : 221 MiB (6%)
    Language                    : English
    Service kind                : Complete Main
    Default                     : No
    Forced                      : No

    Text
    ID                          : 4
    Format                      : UTF-8
    Codec ID                    : S_TEXT/UTF8
    Codec ID/Info               : UTF-8 Plain Text
    Duration                    : 1 h 19 min
    Bit rate                    : 50 b/s
    Count of elements           : 936
    Stream size                 : 29.5 KiB (0%)
    Language                    : Spanish
    Default                     : No
    Forced                      : No

    Menu
    00:00:00.000                : en:1
    00:07:39.000                : en:2
    00:14:35.000                : en:3
    00:22:09.000                : en:4
    00:29:35.000                : en:5
    00:38:41.000                : en:6
    00:44:49.000                : en:7
    00:48:48.000                : en:8
    00:57:35.000                : en:9
    01:03:34.000                : en:10
    01:09:11.000                : en:11
    01:15:58.000                : en:12

  • Peso: 3.34 GB

Sinopsis

Lucas descubre que no es humano después de que sorpresivamente se transforma en monstruo frente a los niños más populares de su escuela. Su búsqueda por Isla Calaca y sus monstruosas raíces lo llevan a un misterioso pero increíble viaje que lo pone cara a cara con muchos tentáculos, colmillos y situaciones fuera de control. Inclusive antes de que pueda controlar sus nuevas alas.

Español Latino AC3 5.1 DVD – Ingles AC3 5.1 iTunes

Ficha técnica

  • Titulo original: Isla calaca
  • Fecha de lanzamiento: 21-07-2017 (Mexico)
  • Director: Leopoldo Aguilar
  • Género: Animación
  • Puntuación: 0.0 0 votos
  • Duración:
    1h 22m

Video trailer de la película

Enlaces de descarga

Rip de Bluray

Descargar La isla de los monstruos (2017) WEBDL 1080p Latino




Aportes de DPeliculasHDmega la pass es:dpeliculashdmega.org Aportes de CinemaniaHD la pass es:eatsouthward.com
Guardado en : Animación

Películas relacionadas

  • Peter Rabbit (2018) 1080p Latino

    2018
    Peter Rabbit (2018) 1080p Latino

    0.0 1h 35m 2018

    Peter Rabbit no es un conejo cualquiera. Es un rebelde travieso y aventurero que viste camisa azul y...

    Director: Will Gluck

    Género: Animación

    Actores: Will Reichelt

  • Suicide Squad Hell to Pay (2018) Full 1080p Latino

    2018
    Suicide Squad Hell to Pay (2018) Full 1080p Latino

    5.0 1 h 26 min 2018

    Task Force X ocupará el lugar central para el próximo lanzamiento en la primavera de 2018 con Suicide...

    Director: Sam Liu

    Género: Acción

    Actores: Vanessa Williams

  • Hulk Vs (2009) Full 1080p Latino

    2009
    Hulk Vs (2009) Full 1080p Latino

    5.0 45 min 28 s 2009

    Thor se enfrenta a su rival más poderoso: Hulk.

    Director: Sam Liu

    Género: Acción

    Actores: Tom Kane

  • Violet Evergarden (2018) NF 1080p Latino

    2018
    Violet Evergarden (2018) NF 1080p Latino

    4.3 24 min 13 s 2018

    La historia se centra alrededor de las llamadas "Auto Memory Dolls"; muñecas inicialmente creadas por...

    Género: Animación

    Actores: Yui Ishikawa

Comentarios 1
  • Freddy Kuger - 23 septiembre, 2017

    Puedes ReSubir Esta pelicula en bluray latino por favor Dark Shadows 2012 tim burtom

-->