La hora del cambio (2017) 1080p Latino

677 vistas
1 estrella2 estrellas3 estrellas4 estrellas5 estrellas (Ninguna valoración todavía)
Cargando…

Información de La hora del cambio (2017) 1080p Latino

Datos de la película

  • Calidad: 1080p
  • Audio: Se especifica abajo de la Sinopsis
  • Subtitulos: Español Latino SRT
  • Resolución: 1920X800
  • Formato: MKV
  • Codec: H.264
  • Encoder: CinemaniaHD
  • Mediainfo: Clic para Mostrar Datos Ver
  • Format                                   : Matroska
    Format version                           : Version 4 / Version 2
    File size                                : 3.42 GiB
    Duration                                 : 1 h 32 min
    Overall bit rate                         : 5 320 kb/s
    Movie name                               : CinemaniaHDD.com
    Encoded date                             : UTC 2017-12-11 23:19:25
    Writing application                      : mkvmerge v15.0.0 ('Duel with the Devil') 64-bit
    Writing library                          : libebml v1.3.5 + libmatroska v1.4.5

    Video
    ID                                       : 1
    Format                                   : AVC
    Format/Info                              : Advanced Video Codec
    Format profile                           : [email protected]
    Format settings                          : CABAC / 5 Ref Frames
    Format settings, CABAC                   : Yes
    Format settings, RefFrames               : 5 frames
    Codec ID                                 : V_MPEG4/ISO/AVC
    Duration                                 : 1 h 32 min
    Bit rate                                 : 4 550 kb/s
    Width                                    : 1 920 pixels
    Height                                   : 800 pixels
    Display aspect ratio                     : 2.40:1
    Frame rate mode                          : Constant
    Frame rate                               : 23.976 (23976/1000) FPS
    Color space                              : YUV
    Chroma subsampling                       : 4:2:0
    Bit depth                                : 8 bits
    Scan type                                : Progressive
    Bits/(Pixel*Frame)                       : 0.124
    Stream size                              : 2.92 GiB (86%)
    Title                                    : La hora del cambio (2017) 1080p Latino
    Language                                 : Italian
    Default                                  : Yes
    Forced                                   : No
    Color range                              : Limited
    Color primaries                          : BT.709
    Transfer characteristics                 : BT.709
    Matrix coefficients                      : BT.709

    Audio #1
    ID                                       : 2
    Format                                   : AC-3
    Format/Info                              : Audio Coding 3
    Format settings, Endianness              : Big
    Codec ID                                 : A_AC3
    Duration                                 : 1 h 32 min
    Bit rate mode                            : Constant
    Bit rate                                 : 384 kb/s
    Channel(s)                               : 6 channels
    Channel positions                        : Front: L C R, Side: L R, LFE
    Sampling rate                            : 48.0 kHz
    Frame rate                               : 31.250 FPS (1536 SPF)
    Bit depth                                : 16 bits
    Compression mode                         : Lossy
    Stream size                              : 253 MiB (7%)
    Language                                 : Spanish
    Service kind                             : Complete Main
    Default                                  : Yes
    Forced                                   : No

    Audio #2
    ID                                       : 3
    Format                                   : AC-3
    Format/Info                              : Audio Coding 3
    Format settings, Endianness              : Big
    Codec ID                                 : A_AC3
    Duration                                 : 1 h 32 min
    Bit rate mode                            : Constant
    Bit rate                                 : 384 kb/s
    Channel(s)                               : 6 channels
    Channel positions                        : Front: L C R, Side: L R, LFE
    Sampling rate                            : 48.0 kHz
    Frame rate                               : 31.250 FPS (1536 SPF)
    Bit depth                                : 16 bits
    Compression mode                         : Lossy
    Stream size                              : 253 MiB (7%)
    Language                                 : Italian
    Service kind                             : Complete Main
    Default                                  : No
    Forced                                   : No

    Text
    ID                                       : 4
    Format                                   : UTF-8
    Codec ID                                 : S_TEXT/UTF8
    Codec ID/Info                            : UTF-8 Plain Text
    Duration                                 : 1 h 27 min
    Bit rate                                 : 79 b/s
    Count of elements                        : 1207
    Stream size                              : 50.6 KiB (0%)
    Language                                 : Spanish
    Default                                  : No
    Forced                                   : No

    Menu
    00:00:00.000                             : en:01
    00:07:09.000                             : en:02
    00:12:36.000                             : en:03
    00:17:23.000                             : en:04
    00:22:19.000                             : en:05
    00:28:45.000                             : en:06
    00:33:53.000                             : en:07
    00:39:23.000                             : en:08
    00:45:53.000                             : en:09
    00:50:49.000                             : en:10
    00:57:53.000                             : en:11
    01:02:54.000                             : en:12
    01:09:02.000                             : en:13
    01:15:42.000                             : en:14
    01:20:55.000                             : en:15
    01:27:51.000                             : en:16

  • Peso: 3.42 GiB

Sinopsis

Los vecinos del pequeño pueblo siciliano de Pietrammare viven acostumbrados al caos que conlleva “saltarse la ley”, pero están hartos. Las carreteras tienen socavones, el tráfico es insufrible, la basura se acumula en las aceras y no hay día que un vecino no pise un excremento de perro. Tampoco les falta un gran puerto… sin barcos, y una fábrica altamente contaminante. Pero parece que ha llegado la hora del cambio: en las elecciones, un nuevo alcalde ha salido victorioso y viene con la firme intención de cumplir todo su programa electoral.

 

 

Audios: Latino AC3 5.1 WEB-DL  – Italiano AC3 5.1 Bluray

Ficha técnica

Video trailer de la película

Enlaces de descarga

Rip de Bluray

Descargar La hora del cambio (2017) 1080p Latino




Aportes de DPeliculasHDmega la pass es:dpeliculashdmega.org Aportes de CinemaniaHD la pass es:eatsouthward.com
Guardado en : Comedia

Películas relacionadas

  • Dude (2018) NF 1080p Latino

    2018
    Dude (2018) NF 1080p Latino

    5.0 1h 30m 2018

    Cuatro mejores amigas se tienen que enfrentar a su nueva vida. Las dos últimas semanas de instituto...

    Director: Olivia Milch

    Género: Comedia

    Actores: Sydney Lucas

  • Gun shy (2017) 1080p Latino

    2017
    Gun shy (2017) 1080p Latino

    0.0 1h 31m 2017

    Basada en la novela homónima de Mark Haskell Smith. Turk Henry es una antigua estrella de rock con sobrepeso...

    Director: Simon West

    Género: Acción

    Actores: Sebastián Apiolaza

  • Se dice de mí (2010) Full 1080p Latino

    2010
    Se dice de mí (2010) Full 1080p Latino

    5.0 1 h 32 min 2010

    El guión, obra del dramaturgo Bert V. Royal, es una versión moderna y en clave estudiantil de “La...

    Director: Will Sandoval

    Género: Comedia

    Actores: Zack Kennedy

  • Rebeldes con causa (2007) Full 1080p Latino

    2007
    Rebeldes con causa (2007) Full 1080p Latino

    5.0 1h 39m 2007

    Cuatro amigos de mediana edad (Travolta, Allen, Lawrence y H. Macy), entusiastas de las motos, deciden...

    Director: Walt Becker

    Género: Acción

    Actores: William H. Macy

  • Marley y yo (2008) Full 1080p Latino

    2008
    Marley y yo (2008) Full 1080p Latino

    5.0 1 h 55 min 2008

    Los recién casados John y Jenny Grogan deciden dejar atrás los duros inviernos de Michigan para instalarse...

    Director: Sheila Waldron

    Género: Comedia

    Actores: Zabryna Guevara

Comentarios 2
  • snj - 12 diciembre, 2017

    Hola
    en otra web dice que la duración es de 1h 28 min y acá 1h 32 min. ¿cuál es la duración correcta?

    • Dpelis2 - 12 diciembre, 2017

      1h 32 min es la correcta

-->