La caída del halcón negro (2001) Full 1080p Latino

1.063 vistas
1 estrella2 estrellas3 estrellas4 estrellas5 estrellas (1 votos, promedio: 3,00 de 5)
Cargando…

Información de La caída del halcón negro (2001) Full 1080p Latino

Datos de la película

  • Calidad: Full 1080p
  • Audio: Español Latino AC3 5.1 DVD - Ingles DTS 5.1 BLURAY
  • Subtitulos: Español Latino SRT- FORZADOS SRT
  • Resolución: 1920X108p
  • Formato: MKV
  • Codec: H.264
  • Encoder: Dracarys
  • Mediainfo: Clic para Mostrar Datos Ver
  • Format                                   : Matroska
    Format version                           : Version 4 / Version 2
    File size                                : 13.8 GiB
    Duration                                 : 2 h 24 min
    Overall bit rate                         : 13.7 Mb/s
    Movie name                               : CinemaniaHDD.com
    Encoded date                             : UTC 2017-12-22 05:51:05 / UTC 2017-12-14T16:24:29Z
    Writing application                      : mkvmerge v15.0.0 ('Duel with the Devil') 64-bit
    Writing library                          : libebml v1.3.5 + libmatroska v1.4.5 / Lavf57.7.2

    Video
    ID                                       : 1
    Format                                   : AVC
    Format/Info                              : Advanced Video Codec
    Format profile                           : [email protected]
    Format settings                          : CABAC / 4 Ref Frames
    Format settings, CABAC                   : Yes
    Format settings, RefFrames               : 4 frames
    Codec ID                                 : V_MPEG4/ISO/AVC
    Duration                                 : 2 h 24 min
    Bit rate                                 : 11.4 Mb/s
    Width                                    : 1 920 pixels
    Height                                   : 1 080 pixels
    Display aspect ratio                     : 16:9
    Frame rate mode                          : Constant
    Frame rate                               : 23.976 (24000/1001) FPS
    Color space                              : YUV
    Chroma subsampling                       : 4:2:0
    Bit depth                                : 8 bits
    Scan type                                : Progressive
    Bits/(Pixel*Frame)                       : 0.230
    Stream size                              : 11.5 GiB (84%)
    Title                                    : La caída del halcón negro (2001) Full 1080p Latino
    Writing library                          : x264 core 148 r2708 86b7198
    Encoding settings                        : cabac=1 / ref=4 / deblock=1:0:0 / analyse=0x3:0x133 / me=esa / subme=10 / psy=1 / psy_rd=1.00:0.00 / mixed_ref=1 / me_range=24 / chroma_me=1 / trellis=2 / 8x8dct=1 / cqm=0 / deadzone=21,11 / fast_pskip=1 / chroma_qp_offset=-2 / threads=34 / lookahead_threads=5 / sliced_threads=0 / nr=0 / decimate=1 / interlaced=0 / bluray_compat=0 / constrained_intra=0 / bframes=8 / b_pyramid=2 / b_adapt=2 / b_bias=0 / direct=3 / weightb=1 / open_gop=0 / weightp=2 / keyint=240 / keyint_min=24 / scenecut=40 / intra_refresh=0 / rc_lookahead=60 / rc=crf / mbtree=1 / crf=20.0 / qcomp=0.60 / qpmin=0 / qpmax=69 / qpstep=4 / vbv_maxrate=62500 / vbv_bufsize=78125 / crf_max=0.0 / nal_hrd=none / filler=0 / ip_ratio=1.40 / aq=1:1.00
    Language                                 : English
    Default                                  : Yes
    Forced                                   : No
    Color range                              : Limited
    Color primaries                          : BT.709
    Transfer characteristics                 : BT.709
    Matrix coefficients                      : BT.709
    Statistics Tags Issue                    : mkvmerge v15.0.0 ('Duel with the Devil') 64-bit 2017-12-22 05:51:05 / mkvmerge v15.0.0 ('Duel with the Devil') 64-bit 2017-12-22 05:51:05 / UTC 2017-12-14T16:24:29Z
    FromStats_BitRate                        : 11693194
    FromStats_Duration                       : 02:24:35.626000000
    FromStats_FrameCount                     : 208007
    FromStats_StreamSize                     : 12680723048

    Audio #1
    ID                                       : 2
    Format                                   : AC-3
    Format/Info                              : Audio Coding 3
    Format settings, Endianness              : Big
    Codec ID                                 : A_AC3
    Duration                                 : 2 h 24 min
    Bit rate mode                            : Constant
    Bit rate                                 : 448 kb/s
    Channel(s)                               : 6 channels
    Channel positions                        : Front: L C R, Side: L R, LFE
    Sampling rate                            : 48.0 kHz
    Frame rate                               : 31.250 FPS (1536 SPF)
    Bit depth                                : 16 bits
    Compression mode                         : Lossy
    Delay relative to video                  : 18 s 300 ms
    Stream size                              : 463 MiB (3%)
    Language                                 : Spanish
    Service kind                             : Complete Main
    Default                                  : Yes
    Forced                                   : No
    Statistics Tags Issue                    : mkvmerge v15.0.0 ('Duel with the Devil') 64-bit 2017-12-22 05:51:05 / mkvmerge v15.0.0 ('Duel with the Devil') 64-bit 2017-12-22 05:51:05 / UTC 2017-12-14T16:24:29Z
    FromStats_BitRate                        : 448000
    FromStats_Duration                       : 02:24:17.856000000
    FromStats_FrameCount                     : 270558
    FromStats_StreamSize                     : 484839936

    Audio #2
    ID                                       : 3
    Format                                   : DTS
    Format/Info                              : Digital Theater Systems
    Mode                                     : 16
    Format settings, Endianness              : Big
    Codec ID                                 : A_DTS
    Duration                                 : 2 h 24 min
    Bit rate mode                            : Constant
    Bit rate                                 : 1 509 kb/s
    Channel(s)                               : 6 channels
    Channel positions                        : Front: L C R, Side: L R, LFE
    Sampling rate                            : 48.0 kHz
    Frame rate                               : 93.750 FPS (512 SPF)
    Bit depth                                : 24 bits
    Compression mode                         : Lossy
    Stream size                              : 1.52 GiB (11%)
    Language                                 : English
    Default                                  : No
    Forced                                   : No
    Statistics Tags Issue                    : mkvmerge v15.0.0 ('Duel with the Devil') 64-bit 2017-12-22 05:51:05 / mkvmerge v15.0.0 ('Duel with the Devil') 64-bit 2017-12-22 05:51:05 / UTC 2017-12-14T16:24:29Z
    FromStats_BitRate                        : 1508999
    FromStats_Duration                       : 02:24:35.638000000
    FromStats_FrameCount                     : 813341
    FromStats_StreamSize                     : 1636442092

    Text #1
    ID                                       : 4
    Format                                   : UTF-8
    Codec ID                                 : S_TEXT/UTF8
    Codec ID/Info                            : UTF-8 Plain Text
    Title                                    : Forzados
    Language                                 : Spanish
    Default                                  : Yes
    Forced                                   : Yes
    Statistics Tags Issue                    : mkvmerge v15.0.0 ('Duel with the Devil') 64-bit 2017-12-22 05:51:05 / mkvmerge v15.0.0 ('Duel with the Devil') 64-bit 2017-12-22 05:51:05 / UTC 2017-12-14T16:24:29Z
    FromStats_BitRate                        : 2
    FromStats_Duration                       : 02:16:04.113000000
    FromStats_FrameCount                     : 61
    FromStats_StreamSize                     : 2378

    Text #2
    ID                                       : 5
    Format                                   : UTF-8
    Codec ID                                 : S_TEXT/UTF8
    Codec ID/Info                            : UTF-8 Plain Text
    Language                                 : Spanish
    Default                                  : No
    Forced                                   : No
    Statistics Tags Issue                    : mkvmerge v15.0.0 ('Duel with the Devil') 64-bit 2017-12-22 05:51:05 / mkvmerge v15.0.0 ('Duel with the Devil') 64-bit 2017-12-22 05:51:05 / UTC 2017-12-14T16:24:29Z
    FromStats_BitRate                        : 49
    FromStats_Duration                       : 02:16:52.703000000
    FromStats_FrameCount                     : 1454
    FromStats_StreamSize                     : 50693

    Menu
    00:00:00.000                             : :Somalia, East Africa
    00:05:05.555                             : :Atto Captured
    00:09:56.012                             : :Welcome to Mogadishu
    00:13:56.377                             : :Rangers & D-Boys
    00:19:33.589                             : :Sunday Morning
    00:21:39.673                             : :Garrison's Briefing
    00:29:56.211                             : :Actionable Intelligence
    00:35:11.860                             : :"Irene"
    00:40:08.489                             : :Insertion
    00:46:15.356                             : :Extraction
    00:51:09.733                             : :Super Six One Down
    00:54:56.418                             : :Chalk Four on the Move
    01:02:16.733                             : :Evacuating the Wounded
    01:07:16.366                             : :Under Fire
    01:12:54.453                             : :Super Six Four Down
    01:17:32.273                             : :Tough Choices
    01:25:07.269                             : :The Lost Convoy
    01:27:14.104                             : :Shughart & Gordon
    01:34:44.679                             : :Regrouping
    01:38:45.628                             : :Darkness Falls on the Mog
    01:44:19.837                             : :Durant Held Hostage
    01:46:21.667                             : :Field Surgery
    01:50:19.530                             : :The Alamo
    01:57:49.062                             : :Night Stalkers
    02:01:16.311                             : :McKnight's Convoy Arrives
    02:05:55.214                             : :The Mogadishu Mile
    02:08:44.425                             : :Pakistani Stadium
    02:13:23.412                             : :Aftermath
    02:16:28.305                             : :End Credits

  • Peso: 13.8 GiB

Sinopsis

Octubre de 1993. Soldados americanos de élite son enviados a Mogadiscio (Somalia) en una misión de paz de las Naciones Unidas. El fin se supone que es salvar vidas, no segarlas. Pero resulta que el principal objetivo de la misión es capturar al caudillo Aidid y acabar de raíz con la guerra. Al principio, todo parece ir bien, hasta que dos helicópteros Black Hawk, aparentemente invencibles, son derribados. Entonces la misión se convierte en una desesperada carrera para rescatar a la tripulación y a los soldados de tierra que han quedado atrapados o han resultado heridos en el accidente.

Ficha técnica

Video trailer de la película

Enlaces de descarga

Rip de Bluray

Descargar La caída del halcón negro (2001) Full 1080p Latino




Aportes de DPeliculasHDmega la pass es:dpeliculashdmega.org Aportes de CinemaniaHD la pass es:eatsouthward.com

Películas relacionadas

  • Ash vs. Evil Dead (2017) Temporada 3 WEBDL Latino

    2015
    Ash vs. Evil Dead (2017) Temporada 3 WEBDL Latino

    5.0 0h 43m 2015

    Esta temporada 3 seguirá, por tanto, contando con la participación de Lucy Lawless en el papel de la...

    Director: Sam Raimi

    Género: Acción

    Actores: Ray Santiago

  • Ahora los padres son ellos (2010) Full 1080p Latino

    2010
    Ahora los padres son ellos (2010) Full 1080p Latino

    5.0 1h 37m 2010

    Han tenido que pasar diez años, dos pequeños Fockers con su mujer, Pam (Polo) e incontables obstáculos...

    Director: Paul Weitz

    Género: Comedia

    Actores: Teri Polo

  • La Familia de Mi novio (2004) Full 1080p Latino

    2004
    La Familia de Mi novio (2004) Full 1080p Latino

    5.0 1h 55m 2004

    Cuatro años después de que el enfermero Greg (alias Gaylord) Focker, durante un fin de semana en casa...

    Director: Wilma Garscadden-Gahret

    Género: Comedia

    Actores: Wayne Thomas Yorke

  • La Familia de Mi novia (2000) Full 1080p Latino

    2000
    La Familia de Mi novia (2000) Full 1080p Latino

    5.0 1 h 47 min 2000

    Greg Focker (Ben Stiller) es un enfermero algo patoso que, tras anunciar su compromiso con novia Pam...

    Director: Richard Cowan

    Género: Comedia

    Actores: William Severs

Comentarios 2
-->