La batalla de los sexos (2017) WEB-DL 1080p Latino

846 vistas
1 estrella2 estrellas3 estrellas4 estrellas5 estrellas (Ninguna valoración todavía)
Cargando…

Información de La batalla de los sexos (2017) WEB-DL 1080p Latino

Datos de la película

  • Calidad: WEBDL
  • Audio: Español Latino AC3 2.0 iTunes - Ingles AC3 5.1 iTunes
  • Subtitulos: Español Latino SRT- FORZADOS SRT
  • Resolución: 1920X804
  • Formato: MKV
  • Codec: H.264
  • Encoder: Cinemania
  • Mediainfo: Clic para Mostrar Datos Ver
  • Format                                   : Matroska
    Format version                           : Version 4 / Version 2
    File size                                : 4.43 GiB
    Duration                                 : 2 h 2 min
    Overall bit rate                         : 5 190 kb/s
    Movie name                               : CinemaniaHDD.com
    Encoded date                             : UTC 2017-12-19 08:30:02
    Writing application                      : mkvmerge v15.0.0 ('Duel with the Devil') 64-bit
    Writing library                          : libebml v1.3.5 + libmatroska v1.4.5

    Video
    ID                                       : 1
    Format                                   : AVC
    Format/Info                              : Advanced Video Codec
    Format profile                           : [email protected]
    Format settings                          : CABAC / 5 Ref Frames
    Format settings, CABAC                   : Yes
    Format settings, RefFrames               : 5 frames
    Codec ID                                 : V_MPEG4/ISO/AVC
    Duration                                 : 2 h 2 min
    Bit rate                                 : 4 614 kb/s
    Width                                    : 1 920 pixels
    Height                                   : 804 pixels
    Display aspect ratio                     : 2.40:1
    Frame rate mode                          : Constant
    Frame rate                               : 23.976 FPS
    Color space                              : YUV
    Chroma subsampling                       : 4:2:0
    Bit depth                                : 8 bits
    Scan type                                : Progressive
    Bits/(Pixel*Frame)                       : 0.125
    Stream size                              : 3.93 GiB (89%)
    Title                                    : La batalla de los sexos (2017) WEB-DL 1080p Latino
    Language                                 : English
    Default                                  : Yes
    Forced                                   : No
    Color range                              : Limited
    Color primaries                          : BT.709
    Transfer characteristics                 : BT.709
    Matrix coefficients                      : BT.709

    Audio #1
    ID                                       : 2
    Format                                   : AC-3
    Format/Info                              : Audio Coding 3
    Format settings, Endianness              : Big
    Codec ID                                 : A_AC3
    Duration                                 : 2 h 1 min
    Bit rate mode                            : Constant
    Bit rate                                 : 192 kb/s
    Channel(s)                               : 2 channels
    Channel positions                        : Front: L R
    Sampling rate                            : 48.0 kHz
    Frame rate                               : 31.250 FPS (1536 SPF)
    Bit depth                                : 16 bits
    Compression mode                         : Lossy
    Stream size                              : 167 MiB (4%)
    Language                                 : Spanish
    Service kind                             : Complete Main
    Default                                  : Yes
    Forced                                   : No

    Audio #2
    ID                                       : 3
    Format                                   : AC-3
    Format/Info                              : Audio Coding 3
    Format settings, Endianness              : Big
    Codec ID                                 : A_AC3
    Duration                                 : 2 h 1 min
    Bit rate mode                            : Constant
    Bit rate                                 : 384 kb/s
    Channel(s)                               : 6 channels
    Channel positions                        : Front: L C R, Side: L R, LFE
    Sampling rate                            : 48.0 kHz
    Frame rate                               : 31.250 FPS (1536 SPF)
    Bit depth                                : 16 bits
    Compression mode                         : Lossy
    Stream size                              : 334 MiB (7%)
    Language                                 : English
    Service kind                             : Complete Main
    Default                                  : No
    Forced                                   : No

    Text #1
    ID                                       : 4
    Format                                   : UTF-8
    Codec ID                                 : S_TEXT/UTF8
    Codec ID/Info                            : UTF-8 Plain Text
    Duration                                 : 29 min 7 s
    Bit rate                                 : 3 b/s
    Count of elements                        : 18
    Stream size                              : 766 Bytes (0%)
    Language                                 : Spanish
    Default                                  : Yes
    Forced                                   : Yes

    Text #2
    ID                                       : 5
    Format                                   : UTF-8
    Codec ID                                 : S_TEXT/UTF8
    Codec ID/Info                            : UTF-8 Plain Text
    Duration                                 : 2 h 0 min
    Bit rate                                 : 72 b/s
    Count of elements                        : 1631
    Stream size                              : 63.8 KiB (0%)
    Language                                 : Spanish
    Default                                  : No
    Forced                                   : No

    Menu
    00:00:00.000                             : en:Chapter 01
    00:03:34.422                             : en:Chapter 02
    00:07:51.302                             : en:Chapter 03
    00:10:57.528                             : en:Chapter 04
    00:15:13.616                             : en:Chapter 05
    00:19:09.518                             : en:Chapter 06
    00:22:54.910                             : en:Chapter 07
    00:27:57.670                             : en:Chapter 08
    00:34:32.940                             : en:Chapter 09
    00:38:57.829                             : en:Chapter 10
    00:44:57.271                             : en:Chapter 11
    00:49:17.071                             : en:Chapter 12
    00:54:23.918                             : en:Chapter 13
    00:57:54.586                             : en:Chapter 14
    01:06:28.265                             : en:Chapter 15
    01:15:03.487                             : en:Chapter 16
    01:19:37.927                             : en:Chapter 17
    01:23:21.899                             : en:Chapter 18
    01:30:49.804                             : en:Chapter 19
    01:35:11.606                             : en:Chapter 20
    01:38:59.125                             : en:Chapter 21
    01:43:04.036                             : en:Chapter 22
    01:48:47.045                             : en:Chapter 23
    01:55:22.731                             : en:Chapter 24

  • Peso: 4.43 GiB

Sinopsis

La batalla de los sexos cuenta el partido de tenis celebrado en 1973 entre dos grandes tenistas, la número 1 del ránking WTA de tenis de 29 años, Billie Jean King (Emma Stone), y el que es uno de los mejores tenistas de la historia, Bobby Riggs (Steve Carell), de 55. Este fue un encuentro que se convirtió en uno de los eventos deportivos televisados con más audiencia de todos los tiempos. Además de la importancia del mismo, este partido desencadenó muchos debates sobre la igualdad de género y el movimiento feminista.

Ficha técnica

Video trailer de la película

Enlaces de descarga

Rip de Bluray

Descargar La batalla de los sexos (2017) WEB-DL 1080p Latino




Aportes de DPeliculasHDmega la pass es:dpeliculashdmega.org Aportes de CinemaniaHD la pass es:eatsouthward.com
Guardado en : Comedia , Drama , Historia

Películas relacionadas

  • Cincuenta sombras liberadas (2018) WEB-DL Latino

    2018
    Cincuenta sombras liberadas (2018) WEB-DL Latino

    0.0 1h 45m 2018

    Creyendo que han dejado atrás las sombras del pasado, los recién casados Christian y Anastasia disfrutan...

    Director: James Foley

    Género: Drama

    Actores: Tyler Hoechlin

  • Niños del hombre (2006) Full 1080p Latino

    2006
    Niños del hombre (2006) Full 1080p Latino

    0.0 1 h 49 min 2006

    Año 2027: el ser humano está al borde de la extinción: los hombres han perdido la capacidad de procrear...

    Director: Terry Needham

    Género: Acción

    Actores: Yolanda Vazquez

  • Amateur (2018) NF Webrip 1080p Latino

    2018
    Amateur (2018) NF Webrip 1080p Latino

    0.0 1h 36m 2018

    Un joven jugador de baloncesto se enfrenta a las dificultades de encajar en el nuevo equipo. Adaptación...

    Director: Ryan Koo

    Género: Drama

    Actores: Tekola Cornetet

  • Para atrapar al ladrón (1955) Full 1080p Latino

    1955
    Para atrapar al ladrón (1955) Full 1080p Latino

    0.0 1h 46m 1955

    A pesar de que John Robie "El Gato" (Cary Grant) es un ladrón de joyas reformado, se convierte en el...

    Director: Alfred Hitchcock

    Género: Crimen

    Actores: William 'Wee Willie' Davis

Comentarios 0
-->