La batalla de los sexos (2017) 1080p Latino

852 vistas
1 estrella2 estrellas3 estrellas4 estrellas5 estrellas (Ninguna valoración todavía)
Cargando…

Información de La batalla de los sexos (2017) 1080p Latino

Datos de la película

  • Calidad: 1080p
  • Audio: Español Latino AC3 5.1 BLURAY - Ingles AC3 5.1 BLURAY
  • Subtitulos: Español Latino SRT- FORZADOS SRT
  • Resolución: 1920X804p
  • Formato: MKV
  • Codec: H.264
  • Encoder: Cinemania
  • Mediainfo: Clic para Mostrar Datos Ver
  • Format                                   : Matroska
    Format version                           : Version 4 / Version 2
    File size                                : 3.61 GiB
    Duration                                 : 2 h 1 min
    Overall bit rate                         : 4 243 kb/s
    Movie name                               : CinemaniaHDD.com
    Encoded date                             : UTC 2017-12-24 00:19:54 / UTC 2017-12-23T01:29:20Z
    Writing application                      : mkvmerge v15.0.0 ('Duel with the Devil') 64-bit
    Writing library                          : libebml v1.3.5 + libmatroska v1.4.5 / Lavf57.7.2

    Video
    ID                                       : 1
    Format                                   : AVC
    Format/Info                              : Advanced Video Codec
    Format profile                           : [email protected]
    Format settings                          : CABAC / 5 Ref Frames
    Format settings, CABAC                   : Yes
    Format settings, RefFrames               : 5 frames
    Codec ID                                 : V_MPEG4/ISO/AVC
    Duration                                 : 2 h 1 min
    Bit rate                                 : 3 327 kb/s
    Nominal bit rate                         : 3 500 kb/s
    Width                                    : 1 920 pixels
    Height                                   : 804 pixels
    Display aspect ratio                     : 2.40:1
    Frame rate mode                          : Constant
    Frame rate                               : 23.976 (24000/1001) FPS
    Color space                              : YUV
    Chroma subsampling                       : 4:2:0
    Bit depth                                : 8 bits
    Scan type                                : Progressive
    Bits/(Pixel*Frame)                       : 0.090
    Stream size                              : 2.83 GiB (78%)
    Title                                    : La batalla de los sexos (2017) 1080p Latino
    Writing library                          : x264 core 148 r2708 86b7198
    Encoding settings                        : cabac=1 / ref=5 / deblock=1:0:0 / analyse=0x3:0x113 / me=umh / subme=8 / psy=1 / psy_rd=1.00:0.00 / mixed_ref=1 / me_range=16 / chroma_me=1 / trellis=1 / 8x8dct=1 / cqm=0 / deadzone=21,11 / fast_pskip=1 / chroma_qp_offset=-2 / threads=25 / lookahead_threads=4 / sliced_threads=0 / nr=0 / decimate=1 / interlaced=0 / bluray_compat=0 / constrained_intra=0 / bframes=3 / b_pyramid=2 / b_adapt=2 / b_bias=0 / direct=3 / weightb=1 / open_gop=0 / weightp=2 / keyint=240 / keyint_min=24 / scenecut=40 / intra_refresh=0 / rc_lookahead=50 / rc=abr / mbtree=1 / bitrate=3500 / ratetol=1.0 / qcomp=0.60 / qpmin=0 / qpmax=69 / qpstep=4 / vbv_maxrate=62500 / vbv_bufsize=78125 / nal_hrd=none / filler=0 / ip_ratio=1.40 / aq=1:1.00
    Language                                 : English
    Default                                  : Yes
    Forced                                   : No
    Color range                              : Limited
    Color primaries                          : BT.709
    Transfer characteristics                 : BT.709
    Matrix coefficients                      : BT.709
    Statistics Tags Issue                    : mkvmerge v15.0.0 ('Duel with the Devil') 64-bit 2017-12-24 00:19:54 / mkvmerge v15.0.0 ('Duel with the Devil') 64-bit 2017-12-24 00:19:54 / UTC 2017-12-23T01:29:20Z
    FromStats_BitRate                        : 3409086
    FromStats_Duration                       : 02:01:39.292000000
    FromStats_FrameCount                     : 175008
    FromStats_StreamSize                     : 3110489476

    Audio #1
    ID                                       : 2
    Format                                   : AC-3
    Format/Info                              : Audio Coding 3
    Format settings, Endianness              : Big
    Codec ID                                 : A_AC3
    Duration                                 : 2 h 1 min
    Bit rate mode                            : Constant
    Bit rate                                 : 448 kb/s
    Channel(s)                               : 6 channels
    Channel positions                        : Front: L C R, Side: L R, LFE
    Sampling rate                            : 48.0 kHz
    Frame rate                               : 31.250 FPS (1536 SPF)
    Bit depth                                : 16 bits
    Compression mode                         : Lossy
    Delay relative to video                  : -5 ms
    Stream size                              : 390 MiB (11%)
    Language                                 : Spanish
    Service kind                             : Complete Main
    Default                                  : Yes
    Forced                                   : No
    Statistics Tags Issue                    : mkvmerge v15.0.0 ('Duel with the Devil') 64-bit 2017-12-24 00:19:54 / mkvmerge v15.0.0 ('Duel with the Devil') 64-bit 2017-12-24 00:19:54 / UTC 2017-12-23T01:29:20Z
    FromStats_BitRate                        : 448000
    FromStats_Duration                       : 02:01:39.360000000
    FromStats_FrameCount                     : 228105
    FromStats_StreamSize                     : 408764160

    Audio #2
    ID                                       : 3
    Format                                   : AC-3
    Format/Info                              : Audio Coding 3
    Format settings, Endianness              : Big
    Codec ID                                 : A_AC3
    Duration                                 : 2 h 1 min
    Bit rate mode                            : Constant
    Bit rate                                 : 384 kb/s
    Channel(s)                               : 6 channels
    Channel positions                        : Front: L C R, Side: L R, LFE
    Sampling rate                            : 48.0 kHz
    Frame rate                               : 31.250 FPS (1536 SPF)
    Bit depth                                : 16 bits
    Compression mode                         : Lossy
    Delay relative to video                  : -5 ms
    Stream size                              : 334 MiB (9%)
    Title                                    : Surround
    Language                                 : English
    Service kind                             : Complete Main
    Default                                  : No
    Forced                                   : No
    Statistics Tags Issue                    : mkvmerge v15.0.0 ('Duel with the Devil') 64-bit 2017-12-24 00:19:54 / mkvmerge v15.0.0 ('Duel with the Devil') 64-bit 2017-12-24 00:19:54 / UTC 2017-12-23T01:29:20Z
    FromStats_BitRate                        : 384000
    FromStats_Duration                       : 02:01:39.328000000
    FromStats_FrameCount                     : 228104
    FromStats_StreamSize                     : 350367744

    Text #1
    ID                                       : 4
    Format                                   : UTF-8
    Codec ID                                 : S_TEXT/UTF8
    Codec ID/Info                            : UTF-8 Plain Text
    Title                                    : Forzados
    Language                                 : Spanish
    Default                                  : Yes
    Forced                                   : Yes
    Statistics Tags Issue                    : mkvmerge v15.0.0 ('Duel with the Devil') 64-bit 2017-12-24 00:19:54 / mkvmerge v15.0.0 ('Duel with the Devil') 64-bit 2017-12-24 00:19:54 / UTC 2017-12-23T01:29:20Z
    FromStats_BitRate                        : 4
    FromStats_Duration                       : 00:22:33.457000000
    FromStats_FrameCount                     : 17
    FromStats_StreamSize                     : 763

    Text #2
    ID                                       : 5
    Format                                   : UTF-8
    Codec ID                                 : S_TEXT/UTF8
    Codec ID/Info                            : UTF-8 Plain Text
    Language                                 : Spanish
    Default                                  : No
    Forced                                   : No
    Statistics Tags Issue                    : mkvmerge v15.0.0 ('Duel with the Devil') 64-bit 2017-12-24 00:19:54 / mkvmerge v15.0.0 ('Duel with the Devil') 64-bit 2017-12-24 00:19:54 / UTC 2017-12-23T01:29:20Z
    FromStats_BitRate                        : 73
    FromStats_Duration                       : 01:53:56.813000000
    FromStats_FrameCount                     : 1629
    FromStats_StreamSize                     : 62408

    Menu
    00:00:00.000                             : :00:00:00.000
    00:03:34.423                             : :00:03:34.423
    00:07:51.304                             : :00:07:51.304
    00:10:57.532                             : :00:10:57.532
    00:15:13.621                             : :00:15:13.621
    00:19:09.523                             : :00:19:09.523
    00:22:54.957                             : :00:22:54.915
    00:27:57.676                             : :00:27:57.676
    00:34:32.946                             : :00:34:32.946
    00:38:57.919                             : :00:38:57.835
    00:44:57.320                             : :00:44:57.278
    00:49:17.079                             : :00:49:17.079
    00:54:23.927                             : :00:54:23.927
    00:57:54.888                             : :00:57:54.763
    01:06:28.276                             : :01:06:28.276
    01:15:03.541                             : :01:15:03.499
    01:19:37.940                             : :01:19:37.940
    01:23:21.955                             : :01:23:21.914
    01:30:49.819                             : :01:30:49.819
    01:35:11.623                             : :01:35:11.623
    01:38:59.183                             : :01:38:59.142
    01:43:04.053                             : :01:43:04.053
    01:48:47.062                             : :01:48:47.062
    01:55:23.041                             : :01:55:22.749

  • Peso: 3.61 GiB

Sinopsis

La batalla de los sexos cuenta el partido de tenis celebrado en 1973 entre dos grandes tenistas, la número 1 del ránking WTA de tenis de 29 años, Billie Jean King (Emma Stone), y el que es uno de los mejores tenistas de la historia, Bobby Riggs (Steve Carell), de 55. Este fue un encuentro que se convirtió en uno de los eventos deportivos televisados con más audiencia de todos los tiempos. Además de la importancia del mismo, este partido desencadenó muchos debates sobre la igualdad de género y el movimiento feminista.

Ficha técnica

Video trailer de la película

Enlaces de descarga

Rip de Bluray

Descargar La batalla de los sexos (2017) 1080p Latino




Aportes de DPeliculasHDmega la pass es:dpeliculashdmega.org Aportes de CinemaniaHD la pass es:eatsouthward.com
Guardado en : Comedia , Drama , Historia

Películas relacionadas

  • Ash vs. Evil Dead (2017) Temporada 3 WEBDL Latino

    2015
    Ash vs. Evil Dead (2017) Temporada 3 WEBDL Latino

    5.0 0h 43m 2015

    Esta temporada 3 seguirá, por tanto, contando con la participación de Lucy Lawless en el papel de la...

    Director: Sam Raimi

    Género: Acción

    Actores: Ray Santiago

  • Hostiles (2017) 1080p Subtitulado

    2017
    Hostiles (2017) 1080p Subtitulado

    0.0 2h 13m 2017

    El legendario capitán del ejército Joseph J. Blocker (Christian Bale) se compromete para acompañar...

    Director: Xanthus Valan

    Género: Aventura

    Actores: Xavier Horsechief

  • Ahora los padres son ellos (2010) Full 1080p Latino

    2010
    Ahora los padres son ellos (2010) Full 1080p Latino

    5.0 1h 37m 2010

    Han tenido que pasar diez años, dos pequeños Fockers con su mujer, Pam (Polo) e incontables obstáculos...

    Director: Paul Weitz

    Género: Comedia

    Actores: Teri Polo

  • La Familia de Mi novio (2004) Full 1080p Latino

    2004
    La Familia de Mi novio (2004) Full 1080p Latino

    5.0 1h 55m 2004

    Cuatro años después de que el enfermero Greg (alias Gaylord) Focker, durante un fin de semana en casa...

    Director: Wilma Garscadden-Gahret

    Género: Comedia

    Actores: Wayne Thomas Yorke

Comentarios 0
-->