King Kong (2005) EXTENDED Full 1080p Latino

1.235 vistas
1 estrella2 estrellas3 estrellas4 estrellas5 estrellas (2 votos, promedio: 5,00 de 5)
Cargando…

Información de King Kong (2005) EXTENDED Full 1080p Latino

Datos de la película

  • Calidad: Full 1080p
  • Audio: Español Latino AC3 5.1 BLURAY - Ingles DTS 5.1 BLURAY
  • Subtitulos: Español Latino PGS - Ingles PGS
  • Resolución: 1920x1080p
  • Formato: MKV
  • Codec: H.264
  • Encoder: Dracarys
  • Mediainfo: Clic para Mostrar Datos Ver
  • Format                                   : Matroska
    Format version                           : Version 4 / Version 2
    File size                                : 14.5 GiB
    Duration                                 : 3 h 20 min
    Overall bit rate                         : 10.4 Mb/s
    Movie name                               : CinemaniaHDD.com
    Encoded date                             : UTC 2018-02-26 02:31:37 / UTC 2018-02-24T05:11:12Z
    Writing application                      : mkvmerge v15.0.0 ('Duel with the Devil') 64-bit
    Writing library                          : libebml v1.3.5 + libmatroska v1.4.5 / Lavf57.7.2

    Video
    ID                                       : 1
    Format                                   : AVC
    Format/Info                              : Advanced Video Codec
    Format profile                           : [email protected]
    Format settings                          : CABAC / 4 Ref Frames
    Format settings, CABAC                   : Yes
    Format settings, RefFrames               : 4 frames
    Codec ID                                 : V_MPEG4/ISO/AVC
    Duration                                 : 3 h 20 min
    Bit rate                                 : 8 000 kb/s
    Width                                    : 1 920 pixels
    Height                                   : 1 080 pixels
    Display aspect ratio                     : 16:9
    Frame rate mode                          : Constant
    Frame rate                               : 23.976 (24000/1001) FPS
    Color space                              : YUV
    Chroma subsampling                       : 4:2:0
    Bit depth                                : 8 bits
    Scan type                                : Progressive
    Bits/(Pixel*Frame)                       : 0.161
    Stream size                              : 11.2 GiB (77%)
    Title                                    : King Kong (2005) EXTENDED Full 1080p Latino
    Writing library                          : x264 core 148 r2708 86b7198
    Encoding settings                        : cabac=1 / ref=4 / deblock=1:0:0 / analyse=0x3:0x133 / me=esa / subme=9 / psy=1 / psy_rd=1.00:0.00 / mixed_ref=1 / me_range=16 / chroma_me=1 / trellis=2 / 8x8dct=1 / cqm=0 / deadzone=21,11 / fast_pskip=1 / chroma_qp_offset=-2 / threads=34 / lookahead_threads=2 / sliced_threads=0 / nr=0 / decimate=1 / interlaced=0 / bluray_compat=0 / constrained_intra=0 / bframes=3 / b_pyramid=2 / b_adapt=2 / b_bias=0 / direct=3 / weightb=1 / open_gop=0 / weightp=2 / keyint=240 / keyint_min=24 / scenecut=40 / intra_refresh=0 / rc_lookahead=60 / rc=crf / mbtree=1 / crf=20.0 / qcomp=0.60 / qpmin=0 / qpmax=69 / qpstep=4 / vbv_maxrate=62500 / vbv_bufsize=78125 / crf_max=0.0 / nal_hrd=none / filler=0 / ip_ratio=1.40 / aq=1:1.00
    Language                                 : English
    Default                                  : Yes
    Forced                                   : No
    Color range                              : Limited
    Color primaries                          : BT.709
    Transfer characteristics                 : BT.709
    Matrix coefficients                      : BT.709
    Statistics Tags Issue                    : mkvmerge v15.0.0 ('Duel with the Devil') 64-bit 2018-02-26 02:31:37 / mkvmerge v15.0.0 ('Duel with the Devil') 64-bit 2018-02-26 02:31:37 / UTC 2018-02-24T05:11:12Z
    FromStats_BitRate                        : 8186832
    FromStats_Duration                       : 03:20:07.913000000
    FromStats_FrameCount                     : 287902
    FromStats_StreamSize                     : 12288347255

    Audio #1
    ID                                       : 2
    Format                                   : AC-3
    Format/Info                              : Audio Coding 3
    Format settings, Endianness              : Big
    Codec ID                                 : A_AC3
    Duration                                 : 3 h 20 min
    Bit rate mode                            : Constant
    Bit rate                                 : 640 kb/s
    Channel(s)                               : 6 channels
    Channel positions                        : Front: L C R, Side: L R, LFE
    Sampling rate                            : 48.0 kHz
    Frame rate                               : 31.250 FPS (1536 SPF)
    Bit depth                                : 16 bits
    Compression mode                         : Lossy
    Stream size                              : 916 MiB (6%)
    Language                                 : Spanish
    Service kind                             : Complete Main
    Default                                  : Yes
    Forced                                   : No
    Statistics Tags Issue                    : mkvmerge v15.0.0 ('Duel with the Devil') 64-bit 2018-02-26 02:31:37 / mkvmerge v15.0.0 ('Duel with the Devil') 64-bit 2018-02-26 02:31:37 / UTC 2018-02-24T05:11:12Z
    FromStats_BitRate                        : 640000
    FromStats_Duration                       : 03:20:07.968000000
    FromStats_FrameCount                     : 375249
    FromStats_StreamSize                     : 960637440

    Audio #2
    ID                                       : 3
    Format                                   : DTS
    Format/Info                              : Digital Theater Systems
    Mode                                     : 16
    Format settings, Endianness              : Big
    Codec ID                                 : A_DTS
    Duration                                 : 3 h 20 min
    Bit rate mode                            : Constant
    Bit rate                                 : 1 509 kb/s
    Channel(s)                               : 6 channels
    Channel positions                        : Front: L C R, Side: L R, LFE
    Sampling rate                            : 48.0 kHz
    Frame rate                               : 93.750 FPS (512 SPF)
    Bit depth                                : 24 bits
    Compression mode                         : Lossy
    Stream size                              : 2.11 GiB (15%)
    Language                                 : English
    Default                                  : No
    Forced                                   : No
    Statistics Tags Issue                    : mkvmerge v15.0.0 ('Duel with the Devil') 64-bit 2018-02-26 02:31:37 / mkvmerge v15.0.0 ('Duel with the Devil') 64-bit 2018-02-26 02:31:37 / UTC 2018-02-24T05:11:12Z
    FromStats_BitRate                        : 1509000
    FromStats_Duration                       : 03:20:07.936000000
    FromStats_FrameCount                     : 1125744
    FromStats_StreamSize                     : 2264996928

    Text #1
    ID                                       : 4
    Format                                   : PGS
    Muxing mode                              : zlib
    Codec ID                                 : S_HDMV/PGS
    Codec ID/Info                            : Picture based subtitle format used on BDs/HD-DVDs
    Language                                 : Spanish
    Default                                  : No
    Forced                                   : No
    Statistics Tags Issue                    : mkvmerge v15.0.0 ('Duel with the Devil') 64-bit 2018-02-26 02:31:37 / mkvmerge v15.0.0 ('Duel with the Devil') 64-bit 2018-02-26 02:31:37 / UTC 2018-02-24T05:11:12Z
    FromStats_BitRate                        : 23918
    FromStats_Duration                       : 03:08:54.793000000
    FromStats_FrameCount                     : 2600
    FromStats_StreamSize                     : 33889543

    Text #2
    ID                                       : 5
    Format                                   : PGS
    Muxing mode                              : zlib
    Codec ID                                 : S_HDMV/PGS
    Codec ID/Info                            : Picture based subtitle format used on BDs/HD-DVDs
    Language                                 : English
    Default                                  : No
    Forced                                   : No
    Statistics Tags Issue                    : mkvmerge v15.0.0 ('Duel with the Devil') 64-bit 2018-02-26 02:31:37 / mkvmerge v15.0.0 ('Duel with the Devil') 64-bit 2018-02-26 02:31:37 / UTC 2018-02-24T05:11:12Z
    FromStats_BitRate                        : 21079
    FromStats_Duration                       : 03:13:34.503000000
    FromStats_FrameCount                     : 3417
    FromStats_StreamSize                     : 30602770

    Menu
    00:00:00.000                             : :Chapter 1
    00:03:02.808                             : :Chapter 2
    00:04:20.802                             : :Chapter 3
    00:06:43.945                             : :Chapter 4
    00:10:29.671                             : :Chapter 5
    00:12:33.211                             : :Chapter 6
    00:14:18.399                             : :Chapter 7
    00:17:40.893                             : :Chapter 8
    00:20:25.850                             : :Chapter 9
    00:24:13.285                             : :Chapter 10
    00:25:55.637                             : :Chapter 11
    00:26:13.363                             : :Chapter 12
    00:28:00.637                             : :Chapter 13
    00:30:29.536                             : :Chapter 14
    00:31:07.449                             : :Chapter 15
    00:33:07.360                             : :Chapter 16
    00:34:14.511                             : :Chapter 17
    00:36:55.880                             : :Chapter 18
    00:39:45.675                             : :Chapter 19
    00:41:07.507                             : :Chapter 20
    00:42:31.716                             : :Chapter 21
    00:43:45.873                             : :Chapter 22
    00:52:20.179                             : :Chapter 23
    00:55:49.930                             : :Chapter 24
    01:02:07.265                             : :Chapter 25
    01:07:32.799                             : :Chapter 26
    01:12:39.480                             : :Chapter 27
    01:14:14.659                             : :Chapter 28
    01:16:59.031                             : :Chapter 29
    01:20:23.527                             : :Chapter 30
    01:22:42.207                             : :Chapter 31
    01:29:20.564                             : :Chapter 32
    01:30:16.620                             : :Chapter 33
    01:32:09.858                             : :Chapter 34
    01:38:55.388                             : :Chapter 35
    01:44:44.153                             : :Chapter 36
    01:46:17.997                             : :Chapter 37
    01:50:02.054                             : :Chapter 38
    02:01:41.294                             : :Chapter 39
    02:09:08.699                             : :Chapter 40
    02:13:19.033                             : :Chapter 41
    02:15:51.518                             : :Chapter 42
    02:21:36.071                             : :Chapter 43
    02:30:16.549                             : :Chapter 44
    02:32:11.748                             : :Chapter 45
    02:34:02.191                             : :Chapter 46
    02:43:14.827                             : :Chapter 47
    02:47:50.602                             : :Chapter 48
    02:52:23.917                             : :Chapter 49
    02:54:05.352                             : :Chapter 50
    02:56:23.990                             : :Chapter 51
    03:03:57.568                             : :Chapter 52
    03:10:36.133                             : :Chapter 53

  • Peso: 14.5 GiB

Sinopsis

La suerte de Ann Darrow cambia cuando conoce a Carl Denham, un empresario que lucha para abrirse camino en el mundo del espectáculo. A ellos se une Jack Driscoll, un autor de teatro neoyorquino. Los tres emprenden un viaje que los llevará a una remota isla, donde Denham tiene previsto dirigir una película. Allí descubren un ser increíble, un gorila gigante, King Kong, que habita en una frondosa selva donde criaturas prehistóricas han vivido ocultas durante millones de años. Denham, con un apetito insaciable de grandeza, enseguida ve la fama que puede reportarle la captura del gorila y su exhibición en Nueva York.

Ficha técnica

Video trailer de la película

Enlaces de descarga

Rip de Bluray

Descargar King Kong (2005) EXTENDED Full 1080p Latino




Aportes de DPeliculasHDmega la pass es:dpeliculashdmega.org Aportes de CinemaniaHD la pass es:eatsouthward.com

Películas relacionadas

  • Cincuenta sombras liberadas (2018) WEB-DL Latino

    2018
    Cincuenta sombras liberadas (2018) WEB-DL Latino

    0.0 1h 45m 2018

    Creyendo que han dejado atrás las sombras del pasado, los recién casados Christian y Anastasia disfrutan...

    Director: James Foley

    Género: Drama

    Actores: Tyler Hoechlin

  • Batman Ninja (2018) WEB-DL 1080p Latino

    2018
    Batman Ninja (2018) WEB-DL 1080p Latino

    5.0 1h 25m 2018

    Batman, junto a sus aliados y enemigos, se ve transportado desde la moderna Gotham hasta el Japón feudal....

    Director: Junpei Mizusaki

    Género: Acción

    Actores: Yuuki Kaji

  • Niños del hombre (2006) Full 1080p Latino

    2006
    Niños del hombre (2006) Full 1080p Latino

    0.0 1 h 49 min 2006

    Año 2027: el ser humano está al borde de la extinción: los hombres han perdido la capacidad de procrear...

    Director: Terry Needham

    Género: Acción

    Actores: Yolanda Vazquez

  • Amateur (2018) NF Webrip 1080p Latino

    2018
    Amateur (2018) NF Webrip 1080p Latino

    0.0 1h 36m 2018

    Un joven jugador de baloncesto se enfrenta a las dificultades de encajar en el nuevo equipo. Adaptación...

    Director: Ryan Koo

    Género: Drama

    Actores: Tekola Cornetet

Comentarios 0
-->