Jurassic World (2015) Full 1080p Latino

1.732 vistas
1 estrella2 estrellas3 estrellas4 estrellas5 estrellas (3 votos, promedio: 4,67 de 5)
Cargando…

Información de Jurassic World (2015) Full 1080p Latino

Datos de la película

  • Calidad: Full 1080p
  • Audio: Español Latino DTS 5.1 BLURAY - Ingles DTS 5.1 BLURAY
  • Subtitulos: Español Latino PGS - Ingles PGS
  • Resolución: 1920X1080p
  • Formato: MKV
  • Codec: H.264
  • Encoder: Dracarys
  • Mediainfo: Clic para Mostrar Datos Ver
  • Format                                   : Matroska
    Format version                           : Version 4 / Version 2
    File size                                : 12.1 GiB
    Duration                                 : 2 h 4 min
    Overall bit rate                         : 13.9 Mb/s
    Movie name                               : CinemaniaHDD.com
    Encoded date                             : UTC 2017-12-08 00:16:39 / UTC 2017-12-06T08:44:46Z
    Writing application                      : mkvmerge v15.0.0 ('Duel with the Devil') 64-bit
    Writing library                          : libebml v1.3.5 + libmatroska v1.4.5 / Lavf57.7.2

    Video
    ID                                       : 1
    Format                                   : AVC
    Format/Info                              : Advanced Video Codec
    Format profile                           : [email protected]
    Format settings                          : CABAC / 4 Ref Frames
    Format settings, CABAC                   : Yes
    Format settings, RefFrames               : 4 frames
    Codec ID                                 : V_MPEG4/ISO/AVC
    Duration                                 : 2 h 4 min
    Bit rate                                 : 11.4 Mb/s
    Width                                    : 1 920 pixels
    Height                                   : 1 080 pixels
    Display aspect ratio                     : 16:9
    Frame rate mode                          : Constant
    Frame rate                               : 23.976 (24000/1001) FPS
    Color space                              : YUV
    Chroma subsampling                       : 4:2:0
    Bit depth                                : 8 bits
    Scan type                                : Progressive
    Bits/(Pixel*Frame)                       : 0.229
    Stream size                              : 9.89 GiB (82%)
    Title                                    : Jurassic World (2015) Full 1080p Latino
    Writing library                          : x264 core 148 r2708 86b7198
    Encoding settings                        : cabac=1 / ref=4 / deblock=1:0:0 / analyse=0x3:0x133 / me=esa / subme=10 / psy=1 / psy_rd=1.00:0.00 / mixed_ref=1 / me_range=24 / chroma_me=1 / trellis=2 / 8x8dct=1 / cqm=0 / deadzone=21,11 / fast_pskip=1 / chroma_qp_offset=-2 / threads=34 / lookahead_threads=5 / sliced_threads=0 / nr=0 / decimate=1 / interlaced=0 / bluray_compat=0 / constrained_intra=0 / bframes=8 / b_pyramid=2 / b_adapt=2 / b_bias=0 / direct=3 / weightb=1 / open_gop=0 / weightp=2 / keyint=240 / keyint_min=24 / scenecut=40 / intra_refresh=0 / rc_lookahead=60 / rc=crf / mbtree=1 / crf=20.0 / qcomp=0.60 / qpmin=0 / qpmax=69 / qpstep=4 / vbv_maxrate=62500 / vbv_bufsize=78125 / crf_max=0.0 / nal_hrd=none / filler=0 / ip_ratio=1.40 / aq=1:1.00
    Language                                 : English
    Default                                  : Yes
    Forced                                   : No
    Color range                              : Limited
    Color primaries                          : BT.709
    Transfer characteristics                 : BT.709
    Matrix coefficients                      : BT.709
    Statistics Tags Issue                    : mkvmerge v15.0.0 ('Duel with the Devil') 64-bit 2017-12-08 00:16:39 / mkvmerge v15.0.0 ('Duel with the Devil') 64-bit 2017-12-08 00:16:39 / UTC 2017-12-06T08:44:46Z
    FromStats_BitRate                        : 11637158
    FromStats_Duration                       : 02:04:21.121000000
    FromStats_FrameCount                     : 178888
    FromStats_StreamSize                     : 10853280496

    Audio #1
    ID                                       : 2
    Format                                   : DTS
    Format/Info                              : Digital Theater Systems
    Mode                                     : 16
    Format settings, Endianness              : Big
    Codec ID                                 : A_DTS
    Duration                                 : 2 h 4 min
    Bit rate mode                            : Constant
    Bit rate                                 : 768 kb/s
    Channel(s)                               : 6 channels
    Channel positions                        : Front: L C R, Side: L R, LFE
    Sampling rate                            : 48.0 kHz
    Frame rate                               : 93.750 FPS (512 SPF)
    Bit depth                                : 24 bits
    Compression mode                         : Lossy
    Stream size                              : 683 MiB (6%)
    Title                                    : DTS-Bluray
    Language                                 : Spanish
    Default                                  : Yes
    Forced                                   : No
    Statistics Tags Issue                    : mkvmerge v15.0.0 ('Duel with the Devil') 64-bit 2017-12-08 00:16:39 / mkvmerge v15.0.0 ('Duel with the Devil') 64-bit 2017-12-08 00:16:39 / UTC 2017-12-06T08:44:46Z
    FromStats_BitRate                        : 768000
    FromStats_Duration                       : 02:04:21.120000000
    FromStats_FrameCount                     : 699480
    FromStats_StreamSize                     : 716267520

    Audio #2
    ID                                       : 3
    Format                                   : DTS
    Format/Info                              : Digital Theater Systems
    Mode                                     : 16
    Format settings, Endianness              : Big
    Codec ID                                 : A_DTS
    Duration                                 : 2 h 4 min
    Bit rate mode                            : Constant
    Bit rate                                 : 1 509 kb/s
    Channel(s)                               : 6 channels
    Channel positions                        : Front: L C R, Side: L R, LFE
    Sampling rate                            : 48.0 kHz
    Frame rate                               : 93.750 FPS (512 SPF)
    Bit depth                                : 24 bits
    Compression mode                         : Lossy
    Stream size                              : 1.31 GiB (11%)
    Title                                    : DTS-Bluray
    Language                                 : English
    Default                                  : No
    Forced                                   : No
    Statistics Tags Issue                    : mkvmerge v15.0.0 ('Duel with the Devil') 64-bit 2017-12-08 00:16:39 / mkvmerge v15.0.0 ('Duel with the Devil') 64-bit 2017-12-08 00:16:39 / UTC 2017-12-06T08:44:46Z
    FromStats_BitRate                        : 1509000
    FromStats_Duration                       : 02:04:21.120000000
    FromStats_FrameCount                     : 699480
    FromStats_StreamSize                     : 1407353760

    Text #1
    ID                                       : 4
    Format                                   : PGS
    Muxing mode                              : zlib
    Codec ID                                 : S_HDMV/PGS
    Codec ID/Info                            : Picture based subtitle format used on BDs/HD-DVDs
    Language                                 : Spanish
    Default                                  : No
    Forced                                   : No
    Statistics Tags Issue                    : mkvmerge v15.0.0 ('Duel with the Devil') 64-bit 2017-12-08 00:16:39 / mkvmerge v15.0.0 ('Duel with the Devil') 64-bit 2017-12-08 00:16:39 / UTC 2017-12-06T08:44:46Z
    FromStats_BitRate                        : 28754
    FromStats_Duration                       : 01:52:37.250000000
    FromStats_FrameCount                     : 2448
    FromStats_StreamSize                     : 24287793

    Text #2
    ID                                       : 5
    Format                                   : PGS
    Muxing mode                              : zlib
    Codec ID                                 : S_HDMV/PGS
    Codec ID/Info                            : Picture based subtitle format used on BDs/HD-DVDs
    Language                                 : English
    Default                                  : No
    Forced                                   : No
    Statistics Tags Issue                    : mkvmerge v15.0.0 ('Duel with the Devil') 64-bit 2017-12-08 00:16:39 / mkvmerge v15.0.0 ('Duel with the Devil') 64-bit 2017-12-08 00:16:39 / UTC 2017-12-06T08:44:46Z
    FromStats_BitRate                        : 36127
    FromStats_Duration                       : 01:53:44.109000000
    FromStats_FrameCount                     : 2988
    FromStats_StreamSize                     : 30817402

    Menu
    00:00:00.000                             : :Chapter 1
    00:06:59.169                             : :Chapter 2
    00:11:01.828                             : :Chapter 3
    00:18:28.441                             : :Chapter 4
    00:25:34.867                             : :Chapter 5
    00:31:20.837                             : :Chapter 6
    00:39:23.862                             : :Chapter 7
    00:44:07.854                             : :Chapter 8
    00:48:57.226                             : :Chapter 9
    00:55:51.056                             : :Chapter 10
    01:01:21.344                             : :Chapter 11
    01:09:50.561                             : :Chapter 12
    01:15:25.479                             : :Chapter 13
    01:23:51.860                             : :Chapter 14
    01:30:14.701                             : :Chapter 15
    01:36:45.425                             : :Chapter 16
    01:41:15.653                             : :Chapter 17
    01:47:35.282                             : :Chapter 18
    01:53:06.029                             : :Chapter 19
    01:55:36.680                             : :Chapter 20

  • Peso: 12.1 GiB

Sinopsis

Veintidós años después de lo ocurrido en Jurassic Park, la isla Nublar ha sido transformada en un parque temático, Jurassic Wold, con versiones «domesticadas» de algunos de los dinosaurios más conocidos. Cuando todo parece ir a la perfección y ser el negocio del siglo, un nuevo dinosaurio de especie todavía desconocida y que es mucho más inteligente de lo que se pensaba, comienza a causar estragos entre los visitantes del Parque.

Ficha técnica

Video trailer de la película

Enlaces de descarga

Rip de Bluray

Descargar Jurassic World (2015) Full 1080p Latino




Aportes de DPeliculasHDmega la pass es:dpeliculashdmega.org Aportes de CinemaniaHD la pass es:eatsouthward.com

Películas relacionadas

  • Batman Ninja (2018) WEB-DL 1080p Latino

    2018
    Batman Ninja (2018) WEB-DL 1080p Latino

    5.0 1h 25m 2018

    Batman, junto a sus aliados y enemigos, se ve transportado desde la moderna Gotham hasta el Japón feudal....

    Director: Junpei Mizusaki

    Género: Acción

    Actores: Yuuki Kaji

  • Niños del hombre (2006) Full 1080p Latino

    2006
    Niños del hombre (2006) Full 1080p Latino

    0.0 1 h 49 min 2006

    Año 2027: el ser humano está al borde de la extinción: los hombres han perdido la capacidad de procrear...

    Director: Terry Needham

    Género: Acción

    Actores: Yolanda Vazquez

  • Winchester (2018) 1080p Latino

    2018
    Winchester (2018) 1080p Latino

    0.0 1h 39m 2018

    A finales del siglo XIX, después de la trágica muerte de su marido y su hijo, Sarah construye una casa-fortaleza...

    Director: Peter Spierig

    Género: Fantasía

    Actores: Xavier Gouault

  • Unlocked (2017) 1080p Latino

    2017
    Unlocked (2017) 1080p Latino

    3.0 1h 43m 2017

    Gira en torno a una agente de la CIA, especializada en interrogatorios, que es engañada por un sospechoso,...

    Director: Vera Homolacova

    Género: Acción

    Actores: Tosin Cole

Comentarios 4
  • vilko - 08 diciembre, 2017

    muy buen aporte amigos, podrian tambien subir la version de IMAX de capitan america civil war, mas las otras peliculas de los heroes de marvel porfavor.

  • Rodrigo - 08 diciembre, 2017

    lol, no funcionaba porque la clave que había que usar era la de cinemaniahdd, no la actual

  • Rodrigo - 08 diciembre, 2017

    Tengo un problema, la descargue dos veces por google drive sin complicaciones pero a la hora de extraer me sale error, también me pasó lo mismo con deadpool, pero no con Dunkirk, sera problema de los rar?

    • Dpelis2 - 08 diciembre, 2017

      Actualiza el WinRAR a la ultima version.

-->