Jumanji: Bienvenidos a la jungla (2017) 1080p Latino

2.802 vistas
1 estrella2 estrellas3 estrellas4 estrellas5 estrellas (Ninguna valoración todavía)
Cargando…

Información de Jumanji: Bienvenidos a la jungla (2017) 1080p Latino

Datos de la película

  • Calidad: 1080p
  • Audio: Español Latino AC3 5.1 BLURAY - Ingles AC3 5.1 BLURAY
  • Subtitulos: Español Latino SRT- FORZADOS SRT
  • Resolución: 1920x800p
  • Formato: MKV
  • Codec: H.264
  • Encoder: Dracarys
  • Mediainfo: Clic para Mostrar Datos Ver
  • Format                                   : Matroska
    Format version                           : Version 4 / Version 2
    File size                                : 3.71 GiB
    Duration                                 : 1 h 59 min
    Overall bit rate                         : 4 456 kb/s
    Movie name                               : CinemaniaHDD.com
    Encoded date                             : UTC 2018-03-07 22:11:08
    Writing application                      : mkvmerge v15.0.0 ('Duel with the Devil') 64-bit
    Writing library                          : libebml v1.3.5 + libmatroska v1.4.5

    Video
    ID                                       : 1
    Format                                   : AVC
    Format/Info                              : Advanced Video Codec
    Format profile                           : [email protected]
    Format settings                          : CABAC / 5 Ref Frames
    Format settings, CABAC                   : Yes
    Format settings, RefFrames               : 5 frames
    Codec ID                                 : V_MPEG4/ISO/AVC
    Duration                                 : 1 h 59 min
    Bit rate                                 : 3 500 kb/s
    Width                                    : 1 920 pixels
    Height                                   : 800 pixels
    Display aspect ratio                     : 2.40:1
    Frame rate mode                          : Constant
    Frame rate                               : 23.976 (24000/1001) FPS
    Color space                              : YUV
    Chroma subsampling                       : 4:2:0
    Bit depth                                : 8 bits
    Scan type                                : Progressive
    Bits/(Pixel*Frame)                       : 0.095
    Stream size                              : 2.85 GiB (77%)
    Title                                    : Jumanji: Bienvenidos a la jungla (2017) 1080p Latino
    Writing library                          : x264 core 148 r2708 86b7198
    Encoding settings                        : cabac=1 / ref=5 / deblock=1:0:0 / analyse=0x3:0x113 / me=umh / subme=8 / psy=1 / psy_rd=1.00:0.00 / mixed_ref=1 / me_range=16 / chroma_me=1 / trellis=1 / 8x8dct=1 / cqm=0 / deadzone=21,11 / fast_pskip=1 / chroma_qp_offset=-2 / threads=25 / lookahead_threads=4 / sliced_threads=0 / nr=0 / decimate=1 / interlaced=0 / bluray_compat=0 / constrained_intra=0 / bframes=3 / b_pyramid=2 / b_adapt=2 / b_bias=0 / direct=3 / weightb=1 / open_gop=0 / weightp=2 / keyint=240 / keyint_min=24 / scenecut=40 / intra_refresh=0 / rc_lookahead=50 / rc=abr / mbtree=1 / bitrate=3500 / ratetol=1.0 / qcomp=0.60 / qpmin=0 / qpmax=69 / qpstep=4 / vbv_maxrate=62500 / vbv_bufsize=78125 / nal_hrd=none / filler=0 / ip_ratio=1.40 / aq=1:1.00
    Language                                 : English
    Default                                  : Yes
    Forced                                   : No
    Color range                              : Limited
    Color primaries                          : BT.709
    Transfer characteristics                 : BT.709
    Matrix coefficients                      : BT.709

    Audio #1
    ID                                       : 2
    Format                                   : AC-3
    Format/Info                              : Audio Coding 3
    Format settings, Endianness              : Big
    Codec ID                                 : A_AC3
    Duration                                 : 1 h 59 min
    Bit rate mode                            : Constant
    Bit rate                                 : 640 kb/s
    Channel(s)                               : 6 channels
    Channel positions                        : Front: L C R, Side: L R, LFE
    Sampling rate                            : 48.0 kHz
    Frame rate                               : 31.250 FPS (1536 SPF)
    Bit depth                                : 16 bits
    Compression mode                         : Lossy
    Delay relative to video                  : -5 ms
    Stream size                              : 545 MiB (14%)
    Language                                 : Spanish
    Service kind                             : Complete Main
    Default                                  : Yes
    Forced                                   : No

    Audio #2
    ID                                       : 3
    Format                                   : AC-3
    Format/Info                              : Audio Coding 3
    Format settings, Endianness              : Big
    Codec ID                                 : A_AC3
    Duration                                 : 1 h 59 min
    Bit rate mode                            : Constant
    Bit rate                                 : 384 kb/s
    Channel(s)                               : 6 channels
    Channel positions                        : Front: L C R, Side: L R, LFE
    Sampling rate                            : 48.0 kHz
    Frame rate                               : 31.250 FPS (1536 SPF)
    Bit depth                                : 16 bits
    Compression mode                         : Lossy
    Delay relative to video                  : -5 ms
    Stream size                              : 327 MiB (9%)
    Language                                 : English
    Service kind                             : Complete Main
    Default                                  : No
    Forced                                   : No

    Text #1
    ID                                       : 4
    Format                                   : UTF-8
    Codec ID                                 : S_TEXT/UTF8
    Codec ID/Info                            : UTF-8 Plain Text
    Duration                                 : 58 min 21 s
    Bit rate                                 : 0 b/s
    Count of elements                        : 14
    Stream size                              : 371 Bytes (0%)
    Title                                    : forzados
    Language                                 : Spanish
    Default                                  : Yes
    Forced                                   : No

    Text #2
    ID                                       : 5
    Format                                   : UTF-8
    Codec ID                                 : S_TEXT/UTF8
    Codec ID/Info                            : UTF-8 Plain Text
    Duration                                 : 1 h 57 min
    Bit rate                                 : 52 b/s
    Count of elements                        : 1513
    Stream size                              : 45.6 KiB (0%)
    Title                                    : completos
    Language                                 : Spanish
    Default                                  : No
    Forced                                   : No

  • Peso: 3.71 GiB

Sinopsis

Veinte años después de los acontecimientos de la primera película, cuatro adolescentes son transportados al mundo mágico de Jumanji gracias a una versión en videojuego del mismo. Jugando como los personajes que eligieron, ellos deberán superar las pruebas del juego para poder ganar y regresar a casa.

 

Creditos audio Latino: Biyick

Ficha técnica

Video trailer de la película

Enlaces de descarga

Rip de Bluray

Descargar Jumanji: Bienvenidos a la jungla (2017) 1080p Latino




Aportes de DPeliculasHDmega la pass es:dpeliculashdmega.org Aportes de CinemaniaHD la pass es:eatsouthward.com
Guardado en : Acción , Aventura , Comedia , Familia

Películas relacionadas

  • Peter Rabbit (2018) 1080p Latino

    2018
    Peter Rabbit (2018) 1080p Latino

    5.0 1h 35m 2018

    Peter Rabbit no es un conejo cualquiera. Es un rebelde travieso y aventurero que viste camisa azul y...

    Director: Will Gluck

    Género: Animación

    Actores: Will Reichelt

  • Ash vs. Evil Dead (2017) Temporada 3 WEBDL Latino

    2015
    Ash vs. Evil Dead (2017) Temporada 3 WEBDL Latino

    5.0 0h 43m 2015

    Esta temporada 3 seguirá, por tanto, contando con la participación de Lucy Lawless en el papel de la...

    Director: Sam Raimi

    Género: Acción

    Actores: Ray Santiago

  • Hostiles (2017) 1080p Subtitulado

    2017
    Hostiles (2017) 1080p Subtitulado

    0.0 2h 13m 2017

    El legendario capitán del ejército Joseph J. Blocker (Christian Bale) se compromete para acompañar...

    Director: Xanthus Valan

    Género: Aventura

    Actores: Xavier Horsechief

  • Ahora los padres son ellos (2010) Full 1080p Latino

    2010
    Ahora los padres son ellos (2010) Full 1080p Latino

    5.0 1h 37m 2010

    Han tenido que pasar diez años, dos pequeños Fockers con su mujer, Pam (Polo) e incontables obstáculos...

    Director: Paul Weitz

    Género: Comedia

    Actores: Teri Polo

Comentarios 9
  • john - 14 marzo, 2018

    Hola, el audio en Inglés está desfasado o dessincronizado !

    • Dracarys - 14 marzo, 2018

      Revisado y el audio esta bien…

  • #Cinefilo - 11 marzo, 2018

    hola amigo antes que nada gracias por los aportes, consulta siempre bajo tus aportes y nunca eh teniado problemas , me pasa que con esta pelicula que eh bajado ya 3 veces los archivos sin problemas pero a la hora de querer abrirlo me dice archivo dañado , como te comentaba pensando que podia ser que se haya bajado mal los archivos los eh bajado nuevamente 3 veces y el error sigue , podrias chequear por favor ¡¡¡ gracias

  • #Cinefilo - 11 marzo, 2018

    Cuando Full?

    • dpelis - 11 marzo, 2018

      2 dias mas y se subira la full

      • #Cinefilo - 11 marzo, 2018

        Gracias

  • pollote86 - 08 marzo, 2018

    GRACIAS POR TUS EXCELENTES APORTES.

  • Gerrard - 08 marzo, 2018

    Al fin en mega!!! Muchísimas gracias!!!

-->