It (2017) Full 1080p Latino

16.352 vistas
1 estrella2 estrellas3 estrellas4 estrellas5 estrellas (6 votos, promedio: 4,67 de 5)
Cargando…

Información de It (2017) Full 1080p Latino

Datos de la película

  • Calidad: Full 1080p
  • Audio: Español Latino AC3 5.1 BLURAY - Ingles DTS 5.1 BLURAY
  • Subtitulos: Español Latino PGS - Ingles PGS
  • Resolución: 1920X1080p
  • Formato: MKV
  • Codec: H.264
  • Encoder: CinemaniaHD
  • Mediainfo: Clic para Mostrar Datos Ver
  • Format                                   : Matroska
    Format version                           : Version 4 / Version 2
    File size                                : 5.21 GiB
    Duration                                 : 2 h 14 min
    Overall bit rate                         : 5 541 kb/s
    Movie name                               : CinemaniaHDD.com
    Encoded date                             : UTC 2018-01-10 19:51:30 / UTC 2017-12-19T22:46:59Z
    Writing application                      : mkvmerge v15.0.0 ('Duel with the Devil') 64-bit
    Writing library                          : libebml v1.3.5 + libmatroska v1.4.5 / Lavf57.7.2

    Video
    ID                                       : 1
    Format                                   : AVC
    Format/Info                              : Advanced Video Codec
    Format profile                           : [email protected]
    Format settings                          : CABAC / 4 Ref Frames
    Format settings, CABAC                   : Yes
    Format settings, RefFrames               : 4 frames
    Codec ID                                 : V_MPEG4/ISO/AVC
    Duration                                 : 2 h 14 min
    Bit rate                                 : 3 473 kb/s
    Width                                    : 1 920 pixels
    Height                                   : 1 080 pixels
    Display aspect ratio                     : 16:9
    Frame rate mode                          : Constant
    Frame rate                               : 23.976 (24000/1001) FPS
    Color space                              : YUV
    Chroma subsampling                       : 4:2:0
    Bit depth                                : 8 bits
    Scan type                                : Progressive
    Bits/(Pixel*Frame)                       : 0.070
    Stream size                              : 3.27 GiB (63%)
    Title                                    : It (2017) Full 1080p Latino
    Writing library                          : x264 core 148 r2708 86b7198
    Encoding settings                        : cabac=1 / ref=4 / deblock=1:0:0 / analyse=0x3:0x133 / me=esa / subme=10 / psy=1 / psy_rd=1.00:0.00 / mixed_ref=1 / me_range=24 / chroma_me=1 / trellis=2 / 8x8dct=1 / cqm=0 / deadzone=21,11 / fast_pskip=1 / chroma_qp_offset=-2 / threads=34 / lookahead_threads=5 / sliced_threads=0 / nr=0 / decimate=1 / interlaced=0 / bluray_compat=0 / constrained_intra=0 / bframes=8 / b_pyramid=2 / b_adapt=2 / b_bias=0 / direct=3 / weightb=1 / open_gop=0 / weightp=2 / keyint=240 / keyint_min=24 / scenecut=40 / intra_refresh=0 / rc_lookahead=60 / rc=crf / mbtree=1 / crf=20.0 / qcomp=0.60 / qpmin=0 / qpmax=69 / qpstep=4 / vbv_maxrate=62500 / vbv_bufsize=78125 / crf_max=0.0 / nal_hrd=none / filler=0 / ip_ratio=1.40 / aq=1:1.00
    Language                                 : English
    Default                                  : Yes
    Forced                                   : No
    Color range                              : Limited
    Color primaries                          : BT.709
    Transfer characteristics                 : BT.709
    Matrix coefficients                      : BT.709
    Statistics Tags Issue                    : mkvmerge v15.0.0 ('Duel with the Devil') 64-bit 2018-01-10 19:51:30 / mkvmerge v15.0.0 ('Duel with the Devil') 64-bit 2018-01-10 19:51:30 / UTC 2017-12-19T22:46:59Z
    FromStats_BitRate                        : 3562800
    FromStats_Duration                       : 02:14:42.408000000
    FromStats_FrameCount                     : 193784
    FromStats_StreamSize                     : 3599501227

    Audio #1
    ID                                       : 2
    Format                                   : AC-3
    Format/Info                              : Audio Coding 3
    Format settings, Endianness              : Big
    Codec ID                                 : A_AC3
    Duration                                 : 2 h 14 min
    Bit rate mode                            : Constant
    Bit rate                                 : 448 kb/s
    Channel(s)                               : 6 channels
    Channel positions                        : Front: L C R, Side: L R, LFE
    Sampling rate                            : 48.0 kHz
    Frame rate                               : 31.250 FPS (1536 SPF)
    Bit depth                                : 16 bits
    Compression mode                         : Lossy
    Stream size                              : 432 MiB (8%)
    Language                                 : Spanish
    Service kind                             : Complete Main
    Default                                  : Yes
    Forced                                   : No
    Statistics Tags Issue                    : mkvmerge v15.0.0 ('Duel with the Devil') 64-bit 2018-01-10 19:51:30 / mkvmerge v15.0.0 ('Duel with the Devil') 64-bit 2018-01-10 19:51:30 / UTC 2017-12-19T22:46:59Z
    FromStats_BitRate                        : 448000
    FromStats_Duration                       : 02:14:42.432000000
    FromStats_FrameCount                     : 252576
    FromStats_StreamSize                     : 452616192

    Audio #2
    ID                                       : 3
    Format                                   : DTS
    Format/Info                              : Digital Theater Systems
    Mode                                     : 16
    Format settings, Endianness              : Big
    Codec ID                                 : A_DTS
    Duration                                 : 2 h 14 min
    Bit rate mode                            : Constant
    Bit rate                                 : 1 509 kb/s
    Channel(s)                               : 6 channels
    Channel positions                        : Front: L C R, Side: L R, LFE
    Sampling rate                            : 48.0 kHz
    Frame rate                               : 93.750 FPS (512 SPF)
    Bit depth                                : 24 bits
    Compression mode                         : Lossy
    Stream size                              : 1.42 GiB (27%)
    Language                                 : English
    Default                                  : No
    Forced                                   : No
    Statistics Tags Issue                    : mkvmerge v15.0.0 ('Duel with the Devil') 64-bit 2018-01-10 19:51:30 / mkvmerge v15.0.0 ('Duel with the Devil') 64-bit 2018-01-10 19:51:30 / UTC 2017-12-19T22:46:59Z
    FromStats_BitRate                        : 1508999
    FromStats_Duration                       : 02:14:42.411000000
    FromStats_FrameCount                     : 757726
    FromStats_StreamSize                     : 1524544712

    Text #1
    ID                                       : 4
    Format                                   : PGS
    Muxing mode                              : zlib
    Codec ID                                 : S_HDMV/PGS
    Codec ID/Info                            : Picture based subtitle format used on BDs/HD-DVDs
    Title                                    : Forzados
    Language                                 : Spanish
    Default                                  : Yes
    Forced                                   : Yes
    Statistics Tags Issue                    : mkvmerge v15.0.0 ('Duel with the Devil') 64-bit 2018-01-10 19:51:30 / mkvmerge v15.0.0 ('Duel with the Devil') 64-bit 2018-01-10 19:51:30 / UTC 2017-12-19T22:46:59Z
    FromStats_BitRate                        : 625
    FromStats_Duration                       : 02:10:26.903000000
    FromStats_FrameCount                     : 70
    FromStats_StreamSize                     : 611632

    Text #2
    ID                                       : 5
    Format                                   : PGS
    Muxing mode                              : zlib
    Codec ID                                 : S_HDMV/PGS
    Codec ID/Info                            : Picture based subtitle format used on BDs/HD-DVDs
    Language                                 : Spanish
    Default                                  : No
    Forced                                   : No
    Statistics Tags Issue                    : mkvmerge v15.0.0 ('Duel with the Devil') 64-bit 2018-01-10 19:51:30 / mkvmerge v15.0.0 ('Duel with the Devil') 64-bit 2018-01-10 19:51:30 / UTC 2017-12-19T22:46:59Z
    FromStats_BitRate                        : 22820
    FromStats_Duration                       : 02:13:17.198000000
    FromStats_FrameCount                     : 2813
    FromStats_StreamSize                     : 22812465

    Text #3
    ID                                       : 6
    Format                                   : PGS
    Muxing mode                              : zlib
    Codec ID                                 : S_HDMV/PGS
    Codec ID/Info                            : Picture based subtitle format used on BDs/HD-DVDs
    Language                                 : English
    Default                                  : No
    Forced                                   : No
    Statistics Tags Issue                    : mkvmerge v15.0.0 ('Duel with the Devil') 64-bit 2018-01-10 19:51:30 / mkvmerge v15.0.0 ('Duel with the Devil') 64-bit 2018-01-10 19:51:30 / UTC 2017-12-19T22:46:59Z
    FromStats_BitRate                        : 31884
    FromStats_Duration                       : 02:14:33.232000000
    FromStats_FrameCount                     : 3677
    FromStats_StreamSize                     : 32175916

     

  • Peso: 5.21 GiB

Sinopsis

Remake del clásico de Stephen King en el que un payaso aterroriza a los niños de un vecindario. En un pequeño pueblo de Maine, siete niños conocidos como el Club de los Perdedores se encuentran cara a cara con problemas de la vida, matones y un monstruo que toma la forma de un payaso llamado Pennywise.

 

Audio Latino del Bluray:

Pelicula Resubida con audio y PGS originales del Bluray

Ficha técnica

Video trailer de la película

Enlaces de descarga

Rip de Bluray

Descargar It (2017) Full 1080p Latino




Aportes de DPeliculasHDmega la pass es:dpeliculashdmega.org Aportes de CinemaniaHD la pass es:eatsouthward.com

Películas relacionadas

  • Ash vs. Evil Dead (2017) Temporada 3 WEBDL Latino

    2015
    Ash vs. Evil Dead (2017) Temporada 3 WEBDL Latino

    5.0 0h 43m 2015

    Esta temporada 3 seguirá, por tanto, contando con la participación de Lucy Lawless en el papel de la...

    Director: Sam Raimi

    Género: Acción

    Actores: Ray Santiago

  • Hostiles (2017) 1080p Subtitulado

    2017
    Hostiles (2017) 1080p Subtitulado

    0.0 2h 13m 2017

    El legendario capitán del ejército Joseph J. Blocker (Christian Bale) se compromete para acompañar...

    Director: Xanthus Valan

    Género: Aventura

    Actores: Xavier Horsechief

  • Ahora los padres son ellos (2010) Full 1080p Latino

    2010
    Ahora los padres son ellos (2010) Full 1080p Latino

    5.0 1h 37m 2010

    Han tenido que pasar diez años, dos pequeños Fockers con su mujer, Pam (Polo) e incontables obstáculos...

    Director: Paul Weitz

    Género: Comedia

    Actores: Teri Polo

Comentarios 25
  • Aurora - 24 marzo, 2018

    Acabo de descargarla pero no se si lo estoy haciendo bien, no meti ninguna clave

  • Amador Constante - 23 enero, 2018

    Una de las mejores adaptaciones de la novela de Stephen King del 1986, muy buena película del género de terror para disfrutarla, con buena calidad de audio y vídeo.
    Una más que me llevo para mi colección.
    Gracias, dpeliculashdmega.org

  • crisg - 14 enero, 2018

    podrias subir el audio dts ingles por separado

  • Juan - 11 enero, 2018

    No permite descargar, cuando apreto el boton descargar abre una pagina de protector de link y pide que hacer click en le enlace pero la unica pagina que abre es una sobre mascotas y empieza el contador para poder acceder a los link

    • dpelis - 12 enero, 2018

      no aparece anuncio para hacer clic , si es asi, cambie ip para que muestre anucios

  • Carlos Alberto - 26 diciembre, 2017

    La llegaran a subir en 4k?

    • Dpelis2 - 26 diciembre, 2017

      posiblemnete

  • Aldair Jesus - 24 diciembre, 2017

    Cuando salga el audio latino del BD ¿le resubiran de nuevo o solo pondran el audio latino aparte?, pregunto porque tambien le faltan los capitulos y los subs que trae estan en castellano.

    • dpelis - 25 diciembre, 2017

      ambos, se resube y se agrega audio separado. los capitulos? el bluray es europeo, no hay bluray americano, hasta en enero

      • Aldair Jesús - 25 diciembre, 2017

        Ooh ya veo, eso explica todo. Si, los capítulos de salto de escenas.

  • Diego - 24 diciembre, 2017

    ¿Saben si saldrá la versión extendida que tiene como 15 minutos de más?

    • Dpelis2 - 24 diciembre, 2017

      lo mas probable que salga solo subtitulada

  • Andres - 24 diciembre, 2017

    Muchas gracias por el aporte.

  • Guido - 23 diciembre, 2017

    Hola por favor cual es la contraseña de esta pelicula?? por que intente con las 2 que estan en el post!! y ninguna funciona!! que puedo hacer??

    • Dpelis2 - 23 diciembre, 2017

      eatsouthward.com

  • zancudito - 23 diciembre, 2017

    solo 5gb tmr esta pelicula al menos eerea unos 15 ps XD

    • Dpelis2 - 23 diciembre, 2017

      No por tener mas peso significa que tendrá mas calidad!

  • Usuario Frecuente - 23 diciembre, 2017

    Es la tercera vez que me pasa que descargo una película y esta se encuentra sin audio, esta mal mi pc o mi reproductor?

    • Dpelis2 - 23 diciembre, 2017

      que reproductor Usas. puede ser que el que usas no Soporta Audios en Formato DTS! Te recomiendo usar el VLC Saludos

    • Aldair Jesus - 23 diciembre, 2017

      Descarga el K Lite Codec Pack standard y usal el Media Player Classic que igual lo incluye, con ese reproduce audio DTS, TrueHD y ATMOS.

  • cristian - 22 diciembre, 2017

    buena tarde el audio latino se escucha bn como no es del blu-ray o es lo mismo gracias por tan excelente aporte

  • TheBestDavid01 - 22 diciembre, 2017

    puedes explicar como eso dts editado de itunes? no es bluray?

    • dpelis - 22 diciembre, 2017

      no es bluray, aun no sale y no hay fecha. creo que pasara igual a king kong que demoro.

  • Jhefferson - 22 diciembre, 2017

    Muchas gracias la estaba esperando descargando…

  • cesar777 - 22 diciembre, 2017

    Aunque ya la vi en cine, pero la estaba esperando para verla en casa. Muchas gracias por el gran a porte. :D!

-->