Hot Fuzz: super policías (2007) Full 1080p Latino

1.160 vistas
1 estrella2 estrellas3 estrellas4 estrellas5 estrellas (1 votos, promedio: 5,00 de 5)
Cargando…

Información de Hot Fuzz: super policías (2007) Full 1080p Latino

Datos de la película

  • Calidad: Full 1080p
  • Audio: Español Latino DTS 5.1 BLURAY - Ingles DTS 5.1 BLURAY
  • Subtitulos: Español Latino PGS - Ingles PGS
  • Resolución: 1920X1080p
  • Formato: MKV
  • Codec: H.264
  • Encoder: Dracarys
  • Mediainfo: Clic para Mostrar Datos Ver
  • Format                                   : Matroska
    Format version                           : Version 4 / Version 2
    File size                                : 9.52 GiB
    Duration                                 : 2 h 0 min
    Overall bit rate                         : 11.3 Mb/s
    Movie name                               : CinemaniaHDD.com
    Encoded date                             : UTC 2017-12-26 23:28:22 / UTC 2017-12-23T07:29:50Z
    Writing application                      : mkvmerge v15.0.0 ('Duel with the Devil') 64-bit
    Writing library                          : libebml v1.3.5 + libmatroska v1.4.5 / Lavf57.7.2

    Video
    ID                                       : 1
    Format                                   : AVC
    Format/Info                              : Advanced Video Codec
    Format profile                           : [email protected]
    Format settings                          : CABAC / 4 Ref Frames
    Format settings, CABAC                   : Yes
    Format settings, RefFrames               : 4 frames
    Codec ID                                 : V_MPEG4/ISO/AVC
    Duration                                 : 2 h 0 min
    Bit rate                                 : 8 780 kb/s
    Width                                    : 1 920 pixels
    Height                                   : 1 080 pixels
    Display aspect ratio                     : 16:9
    Frame rate mode                          : Constant
    Frame rate                               : 23.976 (24000/1001) FPS
    Color space                              : YUV
    Chroma subsampling                       : 4:2:0
    Bit depth                                : 8 bits
    Scan type                                : Progressive
    Bits/(Pixel*Frame)                       : 0.177
    Stream size                              : 7.41 GiB (78%)
    Title                                    : Hot Fuzz: super policías (2007) Full 1080p Latino
    Writing library                          : x264 core 148 r2708 86b7198
    Encoding settings                        : cabac=1 / ref=4 / deblock=1:0:0 / analyse=0x3:0x133 / me=esa / subme=10 / psy=1 / psy_rd=1.00:0.00 / mixed_ref=1 / me_range=24 / chroma_me=1 / trellis=2 / 8x8dct=1 / cqm=0 / deadzone=21,11 / fast_pskip=1 / chroma_qp_offset=-2 / threads=34 / lookahead_threads=5 / sliced_threads=0 / nr=0 / decimate=1 / interlaced=0 / bluray_compat=0 / constrained_intra=0 / bframes=8 / b_pyramid=2 / b_adapt=2 / b_bias=0 / direct=3 / weightb=1 / open_gop=0 / weightp=2 / keyint=240 / keyint_min=24 / scenecut=40 / intra_refresh=0 / rc_lookahead=60 / rc=crf / mbtree=1 / crf=20.0 / qcomp=0.60 / qpmin=0 / qpmax=69 / qpstep=4 / vbv_maxrate=62500 / vbv_bufsize=78125 / crf_max=0.0 / nal_hrd=none / filler=0 / ip_ratio=1.40 / aq=1:1.00
    Language                                 : English
    Default                                  : Yes
    Forced                                   : No
    Color range                              : Limited
    Color primaries                          : BT.709
    Transfer characteristics                 : BT.709
    Matrix coefficients                      : BT.709
    Statistics Tags Issue                    : mkvmerge v15.0.0 ('Duel with the Devil') 64-bit 2017-12-26 23:28:22 / mkvmerge v15.0.0 ('Duel with the Devil') 64-bit 2017-12-26 23:28:22 / UTC 2017-12-23T07:29:50Z
    FromStats_BitRate                        : 8974358
    FromStats_Duration                       : 02:00:52.662000000
    FromStats_FrameCount                     : 173890
    FromStats_StreamSize                     : 8135998341

    Audio #1
    ID                                       : 2
    Format                                   : DTS
    Format/Info                              : Digital Theater Systems
    Mode                                     : 16
    Format settings, Endianness              : Big
    Codec ID                                 : A_DTS
    Duration                                 : 2 h 0 min
    Bit rate mode                            : Constant
    Bit rate                                 : 768 kb/s
    Channel(s)                               : 6 channels
    Channel positions                        : Front: L C R, Side: L R, LFE
    Sampling rate                            : 48.0 kHz
    Frame rate                               : 93.750 FPS (512 SPF)
    Bit depth                                : 24 bits
    Compression mode                         : Lossy
    Stream size                              : 664 MiB (7%)
    Language                                 : Spanish
    Default                                  : Yes
    Forced                                   : No
    Statistics Tags Issue                    : mkvmerge v15.0.0 ('Duel with the Devil') 64-bit 2017-12-26 23:28:22 / mkvmerge v15.0.0 ('Duel with the Devil') 64-bit 2017-12-26 23:28:22 / UTC 2017-12-23T07:29:50Z
    FromStats_BitRate                        : 768000
    FromStats_Duration                       : 02:00:52.672000000
    FromStats_FrameCount                     : 679938
    FromStats_StreamSize                     : 696256512

    Audio #2
    ID                                       : 3
    Format                                   : DTS
    Format/Info                              : Digital Theater Systems
    Mode                                     : 16
    Format settings, Endianness              : Big
    Codec ID                                 : A_DTS
    Duration                                 : 2 h 0 min
    Bit rate mode                            : Constant
    Bit rate                                 : 1 509 kb/s
    Channel(s)                               : 6 channels
    Channel positions                        : Front: L C R, Side: L R, LFE
    Sampling rate                            : 48.0 kHz
    Frame rate                               : 93.750 FPS (512 SPF)
    Bit depth                                : 24 bits
    Compression mode                         : Lossy
    Stream size                              : 1.27 GiB (13%)
    Language                                 : English
    Default                                  : No
    Forced                                   : No
    Statistics Tags Issue                    : mkvmerge v15.0.0 ('Duel with the Devil') 64-bit 2017-12-26 23:28:22 / mkvmerge v15.0.0 ('Duel with the Devil') 64-bit 2017-12-26 23:28:22 / UTC 2017-12-23T07:29:50Z
    FromStats_BitRate                        : 1509000
    FromStats_Duration                       : 02:00:52.672000000
    FromStats_FrameCount                     : 679938
    FromStats_StreamSize                     : 1368035256

    Text #1
    ID                                       : 4
    Format                                   : PGS
    Muxing mode                              : zlib
    Codec ID                                 : S_HDMV/PGS
    Codec ID/Info                            : Picture based subtitle format used on BDs/HD-DVDs
    Language                                 : English
    Default                                  : No
    Forced                                   : No
    Statistics Tags Issue                    : mkvmerge v15.0.0 ('Duel with the Devil') 64-bit 2017-12-26 23:28:22 / mkvmerge v15.0.0 ('Duel with the Devil') 64-bit 2017-12-26 23:28:22 / UTC 2017-12-23T07:29:50Z
    FromStats_BitRate                        : 50423
    FromStats_Duration                       : 01:55:15.326000000
    FromStats_FrameCount                     : 4064
    FromStats_StreamSize                     : 43586789

    Text #2
    ID                                       : 5
    Format                                   : PGS
    Muxing mode                              : zlib
    Codec ID                                 : S_HDMV/PGS
    Codec ID/Info                            : Picture based subtitle format used on BDs/HD-DVDs
    Language                                 : Spanish
    Default                                  : Yes
    Forced                                   : No
    Statistics Tags Issue                    : mkvmerge v15.0.0 ('Duel with the Devil') 64-bit 2017-12-26 23:28:22 / mkvmerge v15.0.0 ('Duel with the Devil') 64-bit 2017-12-26 23:28:22 / UTC 2017-12-23T07:29:50Z
    FromStats_BitRate                        : 44420
    FromStats_Duration                       : 01:54:17.351000000
    FromStats_FrameCount                     : 3110
    FromStats_StreamSize                     : 38075825

    Menu
    00:00:00.000                             : :Chapter 1
    00:02:26.271                             : :Chapter 2
    00:05:23.573                             : :Chapter 3
    00:07:15.977                             : :Chapter 4
    00:12:10.355                             : :Chapter 5
    00:14:07.722                             : :Chapter 6
    00:21:39.423                             : :Chapter 7
    00:25:47.921                             : :Chapter 8
    00:28:46.767                             : :Chapter 9
    00:32:08.844                             : :Chapter 10
    00:35:27.792                             : :Chapter 11
    00:39:07.971                             : :Chapter 12
    00:42:11.946                             : :Chapter 13
    00:44:56.110                             : :Chapter 14
    00:49:26.464                             : :Chapter 15
    00:54:58.629                             : :Chapter 16
    01:01:45.285                             : :Chapter 17
    01:09:24.619                             : :Chapter 18
    01:16:58.906                             : :Chapter 19
    01:19:15.209                             : :Chapter 20
    01:28:59.543                             : :Chapter 21
    01:31:40.537                             : :Chapter 22
    01:41:13.859                             : :Chapter 23
    01:45:30.825                             : :Chapter 24
    01:50:49.434                             : :Chapter 25
    01:52:01.965                             : :Chapter 26
    01:53:54.619                             : :Chapter 27
    01:55:14.866                             : :Chapter 28

     

  • Peso: 9.52 GiB

Sinopsis

Nicholas Angel (Simon Pegg) es, sin duda alguna, el mejor policía de Londres. Sus detenciones superan en un 400% al segundo mejor agente del Cuerpo. Es tan bueno que, comparado a él, cualquier poli es malo. Por eso sus superiores deciden trasladarle a un lugar en que su talento no ponga a nadie en evidencia, a Sandford, un aparentemente adormecido y pacífico pueblecito.

Ficha técnica

Video trailer de la película

Enlaces de descarga

Rip de Bluray

Descargar Hot Fuzz: super policías (2007) Full 1080p Latino




Aportes de DPeliculasHDmega la pass es:dpeliculashdmega.org Aportes de CinemaniaHD la pass es:eatsouthward.com

Películas relacionadas

  • Ash vs. Evil Dead (2017) Temporada 3 WEBDL Latino

    2015
    Ash vs. Evil Dead (2017) Temporada 3 WEBDL Latino

    5.0 0h 43m 2015

    Esta temporada 3 seguirá, por tanto, contando con la participación de Lucy Lawless en el papel de la...

    Director: Sam Raimi

    Género: Acción

    Actores: Ray Santiago

  • Ahora los padres son ellos (2010) Full 1080p Latino

    2010
    Ahora los padres son ellos (2010) Full 1080p Latino

    5.0 1h 37m 2010

    Han tenido que pasar diez años, dos pequeños Fockers con su mujer, Pam (Polo) e incontables obstáculos...

    Director: Paul Weitz

    Género: Comedia

    Actores: Teri Polo

  • La Familia de Mi novio (2004) Full 1080p Latino

    2004
    La Familia de Mi novio (2004) Full 1080p Latino

    5.0 1h 55m 2004

    Cuatro años después de que el enfermero Greg (alias Gaylord) Focker, durante un fin de semana en casa...

    Director: Wilma Garscadden-Gahret

    Género: Comedia

    Actores: Wayne Thomas Yorke

  • La Familia de Mi novia (2000) Full 1080p Latino

    2000
    La Familia de Mi novia (2000) Full 1080p Latino

    5.0 1 h 47 min 2000

    Greg Focker (Ben Stiller) es un enfermero algo patoso que, tras anunciar su compromiso con novia Pam...

    Director: Richard Cowan

    Género: Comedia

    Actores: William Severs

Comentarios 2
  • isarock - 27 diciembre, 2017

    podrias subir la de Scott Spilgrim vs el mundo?

    • Dpelis2 - 27 diciembre, 2017

      Ya esta publicada. Saludos

-->