Hombres de valor (2016) 1080p Latino

1.564 vistas
1 estrella2 estrellas3 estrellas4 estrellas5 estrellas (1 votos, promedio: 4,00 de 5)
Cargando…

Información de Hombres de valor (2016) 1080p Latino

Datos de la película

  • Calidad: 1080p
  • Audio: Español Latino AC3 2.0 Capturado - Ingles AC3 5.1 BLURAY
  • Subtitulos: Español Latino SRT
  • Resolución: 1920X1080p
  • Formato: MKV
  • Codec: H.264
  • Encoder: CinemaniaHD
  • Mediainfo: Clic para Mostrar Datos Ver
  • Format                                   : Matroska
    Format version                           : Version 4 / Version 2
    File size                                : 3.57 GiB
    Duration                                 : 2 h 9 min
    Overall bit rate                         : 3 939 kb/s
    Movie name                               : CinemaniaHDD.com
    Encoded date                             : UTC 2017-12-19 04:14:31 / UTC 2017-12-18T12:38:04Z
    Writing application                      : mkvmerge v15.0.0 ('Duel with the Devil') 64-bit
    Writing library                          : libebml v1.3.5 + libmatroska v1.4.5 / Lavf57.7.2

    Video
    ID                                       : 1
    Format                                   : AVC
    Format/Info                              : Advanced Video Codec
    Format profile                           : H[email protected]
    Format settings                          : CABAC / 4 Ref Frames
    Format settings, CABAC                   : Yes
    Format settings, RefFrames               : 4 frames
    Codec ID                                 : V_MPEG4/ISO/AVC
    Duration                                 : 2 h 9 min
    Bit rate                                 : 3 284 kb/s
    Nominal bit rate                         : 3 500 kb/s
    Width                                    : 1 920 pixels
    Height                                   : 1 080 pixels
    Display aspect ratio                     : 16:9
    Frame rate mode                          : Constant
    Frame rate                               : 23.976 (24000/1001) FPS
    Color space                              : YUV
    Chroma subsampling                       : 4:2:0
    Bit depth                                : 8 bits
    Scan type                                : Progressive
    Bits/(Pixel*Frame)                       : 0.066
    Stream size                              : 2.98 GiB (83%)
    Title                                    : Hombres de valor (2016) 1080p Latino
    Writing library                          : x264 core 148 r2708 86b7198
    Encoding settings                        : cabac=1 / ref=4 / deblock=1:0:0 / analyse=0x3:0x113 / me=umh / subme=8 / psy=1 / psy_rd=1.00:0.00 / mixed_ref=1 / me_range=16 / chroma_me=1 / trellis=1 / 8x8dct=1 / cqm=0 / deadzone=21,11 / fast_pskip=1 / chroma_qp_offset=-2 / threads=34 / lookahead_threads=5 / sliced_threads=0 / nr=0 / decimate=1 / interlaced=0 / bluray_compat=0 / constrained_intra=0 / bframes=3 / b_pyramid=2 / b_adapt=2 / b_bias=0 / direct=3 / weightb=1 / open_gop=0 / weightp=2 / keyint=240 / keyint_min=24 / scenecut=40 / intra_refresh=0 / rc_lookahead=50 / rc=abr / mbtree=1 / bitrate=3500 / ratetol=1.0 / qcomp=0.60 / qpmin=0 / qpmax=69 / qpstep=4 / vbv_maxrate=62500 / vbv_bufsize=78125 / nal_hrd=none / filler=0 / ip_ratio=1.40 / aq=1:1.00
    Language                                 : English
    Default                                  : Yes
    Forced                                   : No
    Color range                              : Limited
    Color primaries                          : BT.709
    Transfer characteristics                 : BT.709
    Matrix coefficients                      : BT.709
    Statistics Tags Issue                    : mkvmerge v15.0.0 ('Duel with the Devil') 64-bit 2017-12-19 04:14:31 / mkvmerge v15.0.0 ('Duel with the Devil') 64-bit 2017-12-19 04:14:31 / UTC 2017-12-18T12:38:04Z
    FromStats_BitRate                        : 3369439
    FromStats_Duration                       : 02:09:55.788000000
    FromStats_FrameCount                     : 186912
    FromStats_StreamSize                     : 3283429787

    Audio #1
    ID                                       : 2
    Format                                   : AC-3
    Format/Info                              : Audio Coding 3
    Format settings, Endianness              : Big
    Codec ID                                 : A_AC3
    Duration                                 : 2 h 9 min
    Bit rate mode                            : Constant
    Bit rate                                 : 192 kb/s
    Channel(s)                               : 2 channels
    Channel positions                        : Front: L R
    Sampling rate                            : 48.0 kHz
    Frame rate                               : 31.250 FPS (1536 SPF)
    Bit depth                                : 16 bits
    Compression mode                         : Lossy
    Delay relative to video                  : 821 ms
    Stream size                              : 178 MiB (5%)
    Title                                    : Stereo
    Language                                 : Spanish
    Service kind                             : Complete Main
    Default                                  : Yes
    Forced                                   : No
    Statistics Tags Issue                    : mkvmerge v15.0.0 ('Duel with the Devil') 64-bit 2017-12-19 04:14:31 / mkvmerge v15.0.0 ('Duel with the Devil') 64-bit 2017-12-19 04:14:31 / UTC 2017-12-18T12:38:04Z
    FromStats_BitRate                        : 183890
    FromStats_Duration                       : 02:09:18.048000000
    FromStats_FrameCount                     : 232199
    FromStats_StreamSize                     : 178328832

    Audio #2
    ID                                       : 3
    Format                                   : AC-3
    Format/Info                              : Audio Coding 3
    Format settings, Endianness              : Big
    Codec ID                                 : A_AC3
    Duration                                 : 2 h 9 min
    Bit rate mode                            : Constant
    Bit rate                                 : 384 kb/s
    Channel(s)                               : 6 channels
    Channel positions                        : Front: L C R, Side: L R, LFE
    Sampling rate                            : 48.0 kHz
    Frame rate                               : 31.250 FPS (1536 SPF)
    Bit depth                                : 16 bits
    Compression mode                         : Lossy
    Delay relative to video                  : -5 ms
    Stream size                              : 357 MiB (10%)
    Title                                    : Surround
    Language                                 : English
    Service kind                             : Complete Main
    Default                                  : No
    Forced                                   : No
    Statistics Tags Issue                    : mkvmerge v15.0.0 ('Duel with the Devil') 64-bit 2017-12-19 04:14:31 / mkvmerge v15.0.0 ('Duel with the Devil') 64-bit 2017-12-19 04:14:31 / UTC 2017-12-18T12:38:04Z
    FromStats_BitRate                        : 384000
    FromStats_Duration                       : 02:09:55.808000000
    FromStats_FrameCount                     : 243619
    FromStats_StreamSize                     : 374198784

    Text
    ID                                       : 4
    Format                                   : UTF-8
    Codec ID                                 : S_TEXT/UTF8
    Codec ID/Info                            : UTF-8 Plain Text
    Default                                  : Yes
    Forced                                   : No
    Statistics Tags Issue                    : mkvmerge v15.0.0 ('Duel with the Devil') 64-bit 2017-12-19 04:14:31 / mkvmerge v15.0.0 ('Duel with the Devil') 64-bit 2017-12-19 04:14:31 / UTC 2017-12-18T12:38:04Z
    FromStats_BitRate                        : 61
    FromStats_Duration                       : 01:59:56.837000000
    FromStats_FrameCount                     : 1436
    FromStats_StreamSize                     : 55490

    Menu
    00:00:00.000                             : :Chapter 1
    00:10:14.364                             : :Chapter 2
    00:19:44.558                             : :Chapter 3
    00:29:56.461                             : :Chapter 4
    00:42:51.069                             : :Chapter 5
    00:53:07.685                             : :Chapter 6
    01:07:20.453                             : :Chapter 7
    01:19:03.614                             : :Chapter 8
    01:32:38.136                             : :Chapter 9
    01:43:05.096                             : :Chapter 10
    01:58:01.324                             : :Chapter 11

  • Peso: 3.57 GiB

Sinopsis

Basada en la verdadera historia de la tripulación del buque de guerra USS Indianapolis, que quedaron a la deriva en el mar de Filipinas durante 5 días tras entregar la bombas atómicas que tiempo después se lanzarían sobre Japón para dar fin a la Segunda Guerra Mundial. Mientras esperaban el rescate, sufrieron de hambre, sed y la amenaza de los tiburones.

Ficha técnica

Video trailer de la película

Enlaces de descarga

Rip de Bluray

Descargar Hombres de valor (2016) 1080p Latino




Aportes de DPeliculasHDmega la pass es:dpeliculashdmega.org Aportes de CinemaniaHD la pass es:eatsouthward.com

Películas relacionadas

  • Batman Ninja (2018) WEB-DL 1080p Latino

    2018
    Batman Ninja (2018) WEB-DL 1080p Latino

    5.0 1h 25m 2018

    Batman, junto a sus aliados y enemigos, se ve transportado desde la moderna Gotham hasta el Japón feudal....

    Director: Junpei Mizusaki

    Género: Acción

    Actores: Yuuki Kaji

  • Niños del hombre (2006) Full 1080p Latino

    2006
    Niños del hombre (2006) Full 1080p Latino

    0.0 1 h 49 min 2006

    Año 2027: el ser humano está al borde de la extinción: los hombres han perdido la capacidad de procrear...

    Director: Terry Needham

    Género: Acción

    Actores: Yolanda Vazquez

  • Unlocked (2017) 1080p Latino

    2017
    Unlocked (2017) 1080p Latino

    3.0 1h 43m 2017

    Gira en torno a una agente de la CIA, especializada en interrogatorios, que es engañada por un sospechoso,...

    Director: Vera Homolacova

    Género: Acción

    Actores: Tosin Cole

  • Para atrapar al ladrón (1955) Full 1080p Latino

    1955
    Para atrapar al ladrón (1955) Full 1080p Latino

    0.0 1h 46m 1955

    A pesar de que John Robie "El Gato" (Cary Grant) es un ladrón de joyas reformado, se convierte en el...

    Director: Alfred Hitchcock

    Género: Crimen

    Actores: William 'Wee Willie' Davis

Comentarios 4
  • juan Vera - 09 enero, 2018

    No se puede descargar. Nunca llega a salir el anuncio para darle clic

    • dpelis - 09 enero, 2018

      cambiar ip con extencion hola chrome

  • snj - 21 diciembre, 2017

    Hola
    saldrá con mejor audio?

    • Dpelis2 - 21 diciembre, 2017

      Por el momento no.

-->