Hazlo como hombre (2017) 1080p Latino

2.525 vistas
1 estrella2 estrellas3 estrellas4 estrellas5 estrellas (1 votos, promedio: 5,00 de 5)
Cargando…

Información de Hazlo como hombre (2017) 1080p Latino

Datos de la película

  • Calidad: 1080p
  • Audio: Español Latino AC3 5.1 BLURAY
  • Subtitulos: No
  • Resolución: 1920X904
  • Formato: MKV
  • Codec: H.264
  • Encoder: Dpelis
  • Mediainfo: Clic para Mostrar Datos Ver
  • Format                                   : Matroska
    Format version                           : Version 4 / Version 2
    File size                                : 2.68 GiB
    Duration                                 : 1 h 39 min
    Overall bit rate                         : 3 863 kb/s
    Encoded date                             : UTC 2017-12-02T03:23:24Z
    Writing application                      : HandBrake 1.0.7 2017040900
    Writing library                          : Lavf57.7.2

    Video
    ID                                       : 1
    Format                                   : AVC
    Format/Info                              : Advanced Video Codec
    Format profile                           : [email protected]
    Format settings                          : CABAC / 5 Ref Frames
    Format settings, CABAC                   : Yes
    Format settings, RefFrames               : 5 frames
    Codec ID                                 : V_MPEG4/ISO/AVC
    Duration                                 : 1 h 39 min
    Bit rate                                 : 3 500 kb/s
    Width                                    : 1 920 pixels
    Height                                   : 804 pixels
    Display aspect ratio                     : 2.40:1
    Frame rate mode                          : Constant
    Frame rate                               : 23.976 (24000/1001) FPS
    Color space                              : YUV
    Chroma subsampling                       : 4:2:0
    Bit depth                                : 8 bits
    Scan type                                : Progressive
    Bits/(Pixel*Frame)                       : 0.095
    Stream size                              : 2.36 GiB (88%)
    Writing library                          : x264 core 148 r2708 86b7198
    Encoding settings                        : cabac=1 / ref=5 / deblock=1:0:0 / analyse=0x3:0x113 / me=umh / subme=8 / psy=1 / psy_rd=1.00:0.00 / mixed_ref=1 / me_range=16 / chroma_me=1 / trellis=1 / 8x8dct=1 / cqm=0 / deadzone=21,11 / fast_pskip=1 / chroma_qp_offset=-2 / threads=25 / lookahead_threads=4 / sliced_threads=0 / nr=0 / decimate=1 / interlaced=0 / bluray_compat=0 / constrained_intra=0 / bframes=3 / b_pyramid=2 / b_adapt=2 / b_bias=0 / direct=3 / weightb=1 / open_gop=0 / weightp=2 / keyint=240 / keyint_min=24 / scenecut=40 / intra_refresh=0 / rc_lookahead=50 / rc=abr / mbtree=1 / bitrate=3500 / ratetol=1.0 / qcomp=0.60 / qpmin=0 / qpmax=69 / qpstep=4 / vbv_maxrate=62500 / vbv_bufsize=78125 / nal_hrd=none / filler=0 / ip_ratio=1.40 / aq=1:1.00
    Default                                  : Yes
    Forced                                   : No
    Color range                              : Limited
    Color primaries                          : BT.709
    Transfer characteristics                 : BT.709
    Matrix coefficients                      : BT.709

    Audio
    ID                                       : 2
    Format                                   : AC-3
    Format/Info                              : Audio Coding 3
    Format settings, Endianness              : Big
    Codec ID                                 : A_AC3
    Duration                                 : 1 h 39 min
    Bit rate mode                            : Constant
    Bit rate                                 : 384 kb/s
    Channel(s)                               : 6 channels
    Channel positions                        : Front: L C R, Side: L R, LFE
    Sampling rate                            : 48.0 kHz
    Frame rate                               : 31.250 FPS (1536 SPF)
    Bit depth                                : 16 bits
    Compression mode                         : Lossy
    Delay relative to video                  : -5 ms
    Stream size                              : 273 MiB (10%)
    Title                                    : Surround
    Service kind                             : Complete Main
    Default                                  : Yes
    Forced                                   : No

    Menu
    00:00:00.000                             : :Chapter 1
    00:07:20.440                             : :Chapter 2
    00:16:53.596                             : :Chapter 3
    00:26:53.487                             : :Chapter 4
    00:35:52.734                             : :Chapter 5
    00:43:15.301                             : :Chapter 6
    00:51:53.736                             : :Chapter 7
    00:59:54.257                             : :Chapter 8
    01:09:06.684                             : :Chapter 9
    01:15:54.341                             : :Chapter 10
    01:22:42.666                             : :Chapter 11
    01:32:22.370                             : :Chapter 12

  • Peso: 2.68 GiB

Sinopsis

Raúl, Eduardo y Santiago han llevado una feliz y masculina vida desde su infancia, hasta que, un día, Santiago les confiesa que es gay. Impactado, Raúl, el macho alfa y más homofóbico de los tres, intentará convencer a su amigo de que lo suyo no es más que una simple confusión sexual, hasta que, cuando la situación se torne insostenible, Eduardo y Raúl dejarán de lado sus prejuicios y decidirán ayudar a Santiago a incursionar en su nueva vida gay.

Ficha técnica

  • Titulo original: Hazlo como hombre
  • Fecha de lanzamiento: 11-08-2017 (Mexico)
  • Director: Nicolás López
  • Género: Comedia
  • Puntuación: 5.0 1 votos
  • Duración:
    1 h 39 min

Video trailer de la película

Enlaces de descarga

Rip de Bluray

Descargar Hazlo como hombre (2017) 1080p Latino




Aportes de DPeliculasHDmega la pass es:dpeliculashdmega.org Aportes de CinemaniaHD la pass es:eatsouthward.com
Guardado en : Comedia

Películas relacionadas

  • Dude (2018) NF 1080p Latino

    2018
    Dude (2018) NF 1080p Latino

    0.0 1h 30m 2018

    Cuatro mejores amigas se tienen que enfrentar a su nueva vida. Las dos últimas semanas de instituto...

    Director: Olivia Milch

    Género: Comedia

    Actores: Sydney Lucas

  • Gun shy (2017) 1080p Latino

    2017
    Gun shy (2017) 1080p Latino

    0.0 1h 31m 2017

    Basada en la novela homónima de Mark Haskell Smith. Turk Henry es una antigua estrella de rock con sobrepeso...

    Director: Simon West

    Género: Acción

    Actores: Sebastián Apiolaza

  • Se dice de mí (2010) Full 1080p Latino

    2010
    Se dice de mí (2010) Full 1080p Latino

    5.0 1 h 32 min 2010

    El guión, obra del dramaturgo Bert V. Royal, es una versión moderna y en clave estudiantil de “La...

    Director: Will Sandoval

    Género: Comedia

    Actores: Zack Kennedy

  • Rebeldes con causa (2007) Full 1080p Latino

    2007
    Rebeldes con causa (2007) Full 1080p Latino

    5.0 1h 39m 2007

    Cuatro amigos de mediana edad (Travolta, Allen, Lawrence y H. Macy), entusiastas de las motos, deciden...

    Director: Walt Becker

    Género: Acción

    Actores: William H. Macy

  • Marley y yo (2008) Full 1080p Latino

    2008
    Marley y yo (2008) Full 1080p Latino

    5.0 1 h 55 min 2008

    Los recién casados John y Jenny Grogan deciden dejar atrás los duros inviernos de Michigan para instalarse...

    Director: Sheila Waldron

    Género: Comedia

    Actores: Zabryna Guevara

Comentarios 0
-->