Happy Family (2017) Full 1080p Latino

2.270 vistas
1 estrella2 estrellas3 estrellas4 estrellas5 estrellas (2 votos, promedio: 3,50 de 5)
Cargando…

Información de Happy Family (2017) Full 1080p Latino

Datos de la película

  • Calidad: Full 1080p
  • Audio: Español Latino AC3 5.1 BLURAY
  • Subtitulos: No
  • Resolución: 1920X1080
  • Formato: MKV
  • Codec: H.264
  • Encoder: Dpelis
  • Mediainfo: Clic para Mostrar Datos Ver
  • Format                                   : Matroska
    Format version                           : Version 4 / Version 2
    File size                                : 3.16 GiB
    Duration                                 : 1 h 32 min
    Overall bit rate                         : 4 862 kb/s
    Movie name                               : dpeliculashdmega.org
    Encoded date                             : UTC 2017-12-02 20:17:38 / UTC 2017-12-02T15:11:49Z
    Writing application                      : mkvmerge v15.0.0 ('Duel with the Devil') 64-bit
    Writing library                          : libebml v1.3.5 + libmatroska v1.4.5 / Lavf57.7.2

    Video
    ID                                       : 1
    Format                                   : AVC
    Format/Info                              : Advanced Video Codec
    Format profile                           : [email protected]
    Format settings                          : CABAC / 4 Ref Frames
    Format settings, CABAC                   : Yes
    Format settings, RefFrames               : 4 frames
    Codec ID                                 : V_MPEG4/ISO/AVC
    Duration                                 : 1 h 32 min
    Bit rate                                 : 4 317 kb/s
    Width                                    : 1 920 pixels
    Height                                   : 1 080 pixels
    Display aspect ratio                     : 16:9
    Frame rate mode                          : Constant
    Frame rate                               : 23.976 (24000/1001) FPS
    Color space                              : YUV
    Chroma subsampling                       : 4:2:0
    Bit depth                                : 8 bits
    Scan type                                : Progressive
    Bits/(Pixel*Frame)                       : 0.087
    Stream size                              : 2.80 GiB (89%)
    Title                                    : Happy Family (2017) Full 1080p Latino
    Writing library                          : x264 core 148 r2708 86b7198
    Encoding settings                        : cabac=1 / ref=4 / deblock=1:0:0 / analyse=0x3:0x133 / me=esa / subme=10 / psy=1 / psy_rd=1.00:0.00 / mixed_ref=1 / me_range=24 / chroma_me=1 / trellis=2 / 8x8dct=1 / cqm=0 / deadzone=21,11 / fast_pskip=1 / chroma_qp_offset=-2 / threads=34 / lookahead_threads=5 / sliced_threads=0 / nr=0 / decimate=1 / interlaced=0 / bluray_compat=0 / constrained_intra=0 / bframes=8 / b_pyramid=2 / b_adapt=2 / b_bias=0 / direct=3 / weightb=1 / open_gop=0 / weightp=2 / keyint=240 / keyint_min=24 / scenecut=40 / intra_refresh=0 / rc_lookahead=60 / rc=crf / mbtree=1 / crf=20.0 / qcomp=0.60 / qpmin=0 / qpmax=69 / qpstep=4 / vbv_maxrate=62500 / vbv_bufsize=78125 / crf_max=0.0 / nal_hrd=none / filler=0 / ip_ratio=1.40 / aq=1:1.00
    Language                                 : English
    Default                                  : Yes
    Forced                                   : No
    Color range                              : Limited
    Color primaries                          : BT.709
    Transfer characteristics                 : BT.709
    Matrix coefficients                      : BT.709
    Statistics Tags Issue                    : mkvmerge v15.0.0 ('Duel with the Devil') 64-bit 2017-12-02 20:17:38 / mkvmerge v15.0.0 ('Duel with the Devil') 64-bit 2017-12-02 20:17:38 / UTC 2017-12-02T15:11:49Z
    FromStats_BitRate                        : 4412211
    FromStats_Duration                       : 01:32:56.947000000
    FromStats_FrameCount                     : 133713
    FromStats_StreamSize                     : 3075833450

    Audio
    ID                                       : 2
    Format                                   : AC-3
    Format/Info                              : Audio Coding 3
    Format settings, Endianness              : Big
    Codec ID                                 : A_AC3
    Duration                                 : 1 h 32 min
    Bit rate mode                            : Constant
    Bit rate                                 : 448 kb/s
    Channel(s)                               : 6 channels
    Channel positions                        : Front: L C R, Side: L R, LFE
    Sampling rate                            : 48.0 kHz
    Frame rate                               : 31.250 FPS (1536 SPF)
    Bit depth                                : 16 bits
    Compression mode                         : Lossy
    Stream size                              : 298 MiB (9%)
    Title                                    : Latino-AC3
    Language                                 : Spanish
    Service kind                             : Complete Main
    Default                                  : Yes
    Forced                                   : No
    Statistics Tags Issue                    : mkvmerge v15.0.0 ('Duel with the Devil') 64-bit 2017-12-02 20:17:38 / mkvmerge v15.0.0 ('Duel with the Devil') 64-bit 2017-12-02 20:17:38 / UTC 2017-12-02T15:11:49Z
    FromStats_BitRate                        : 448000
    FromStats_Duration                       : 01:32:56.992000000
    FromStats_FrameCount                     : 174281
    FromStats_StreamSize                     : 312311552

    Menu
    00:00:00.000                             : :Chapter 1
    00:06:38.189                             : :Chapter 2
    00:16:33.701                             : :Chapter 3
    00:23:33.662                             : :Chapter 4
    00:30:11.184                             : :Chapter 5
    00:38:53.289                             : :Chapter 6
    00:46:23.364                             : :Chapter 7
    00:53:43.345                             : :Chapter 8
    01:01:12.002                             : :Chapter 9
    01:08:06.082                             : :Chapter 10
    01:14:25.378                             : :Chapter 11
    01:22:53.844                             : :Chapter 12

  • Peso: 3.16 GiB

Sinopsis

La familia Wünschmann no es exactamente una familia feliz pero mamá Emma animará a todos a dejar sus diferencias de lado e ir juntos a un parque temático. Luego de una broma inocente con una muñeca, que resulta ser la bruja Babayaga, los Wünschmann son convertidos en monstruos. Mamá Emma en un vampiro, papá Frank en Frankenstein, la hijita Fee en una momia e hijito Max en un lobo. Y así es como un viaje normal a través de un tren fantasma se transforma una aventura ridículamente espeluznante. ¿Encontrará la familia Wünschmann su final feliz?

Ficha técnica

Video trailer de la película

Enlaces de descarga

Rip de Bluray

Descargar Happy Family (2017) Full 1080p Latino




Aportes de DPeliculasHDmega la pass es:dpeliculashdmega.org Aportes de CinemaniaHD la pass es:eatsouthward.com

Películas relacionadas

  • Peter Rabbit (2018) 1080p Latino

    2018
    Peter Rabbit (2018) 1080p Latino

    5.0 1h 35m 2018

    Peter Rabbit no es un conejo cualquiera. Es un rebelde travieso y aventurero que viste camisa azul y...

    Director: Will Gluck

    Género: Animación

    Actores: Will Reichelt

  • Ahora los padres son ellos (2010) Full 1080p Latino

    2010
    Ahora los padres son ellos (2010) Full 1080p Latino

    5.0 1h 37m 2010

    Han tenido que pasar diez años, dos pequeños Fockers con su mujer, Pam (Polo) e incontables obstáculos...

    Director: Paul Weitz

    Género: Comedia

    Actores: Teri Polo

  • La Familia de Mi novio (2004) Full 1080p Latino

    2004
    La Familia de Mi novio (2004) Full 1080p Latino

    5.0 1h 55m 2004

    Cuatro años después de que el enfermero Greg (alias Gaylord) Focker, durante un fin de semana en casa...

    Director: Wilma Garscadden-Gahret

    Género: Comedia

    Actores: Wayne Thomas Yorke

  • La Familia de Mi novia (2000) Full 1080p Latino

    2000
    La Familia de Mi novia (2000) Full 1080p Latino

    5.0 1 h 47 min 2000

    Greg Focker (Ben Stiller) es un enfermero algo patoso que, tras anunciar su compromiso con novia Pam...

    Director: Richard Cowan

    Género: Comedia

    Actores: William Severs

Comentarios 0
-->