Guerra de papás 2 (2017) 1080p Latino

1.714 vistas
1 estrella2 estrellas3 estrellas4 estrellas5 estrellas (1 votos, promedio: 5,00 de 5)
Cargando…

Información de Guerra de papás 2 (2017) 1080p Latino

Datos de la película

  • Calidad:
  • Audio: Español Latino AC3 5.1 BLURAY - Ingles AC3 5.1 BLURAY
  • Subtitulos: Español Latino SRT- FORZADOS SRT
  • Resolución: 1920X1080p
  • Formato: MKV
  • Codec: H.264
  • Encoder: Dracarys
  • Mediainfo: Clic para Mostrar Datos Ver
  • Format                                   : Matroska
    Format version                           : Version 4 / Version 2
    File size                                : 3.31 GiB
    Duration                                 : 1 h 39 min
    Overall bit rate                         : 4 755 kb/s
    Movie name                               : CinemaniaHDD.com
    Encoded date                             : UTC 2018-02-07 14:52:45 / UTC 2018-02-07T13:54:54Z
    Writing application                      : mkvmerge v15.0.0 ('Duel with the Devil') 64-bit
    Writing library                          : libebml v1.3.5 + libmatroska v1.4.5 / Lavf57.7.2

    Video
    ID                                       : 1
    Format                                   : AVC
    Format/Info                              : Advanced Video Codec
    Format profile                           : [email protected]
    Format settings                          : CABAC / 4 Ref Frames
    Format settings, CABAC                   : Yes
    Format settings, RefFrames               : 4 frames
    Codec ID                                 : V_MPEG4/ISO/AVC
    Duration                                 : 1 h 39 min
    Bit rate                                 : 3 500 kb/s
    Width                                    : 1 920 pixels
    Height                                   : 1 080 pixels
    Display aspect ratio                     : 16:9
    Frame rate mode                          : Constant
    Frame rate                               : 23.976 (24000/1001) FPS
    Color space                              : YUV
    Chroma subsampling                       : 4:2:0
    Bit depth                                : 8 bits
    Scan type                                : Progressive
    Bits/(Pixel*Frame)                       : 0.070
    Stream size                              : 2.35 GiB (71%)
    Title                                    : Guerra de papás 2 (2017) 1080p Latino
    Writing library                          : x264 core 148 r2708 86b7198
    Encoding settings                        : cabac=1 / ref=3 / deblock=1:0:0 / analyse=0x3:0x113 / me=hex / subme=7 / psy=1 / psy_rd=1.00:0.00 / mixed_ref=1 / me_range=16 / chroma_me=1 / trellis=1 / 8x8dct=1 / cqm=0 / deadzone=21,11 / fast_pskip=1 / chroma_qp_offset=-2 / threads=34 / lookahead_threads=5 / sliced_threads=0 / nr=0 / decimate=1 / interlaced=0 / bluray_compat=0 / constrained_intra=0 / bframes=3 / b_pyramid=2 / b_adapt=1 / b_bias=0 / direct=1 / weightb=1 / open_gop=0 / weightp=2 / keyint=240 / keyint_min=24 / scenecut=40 / intra_refresh=0 / rc_lookahead=40 / rc=abr / mbtree=1 / bitrate=3500 / ratetol=1.0 / qcomp=0.60 / qpmin=0 / qpmax=69 / qpstep=4 / vbv_maxrate=62500 / vbv_bufsize=78125 / nal_hrd=none / filler=0 / ip_ratio=1.40 / aq=1:1.00
    Language                                 : English
    Default                                  : Yes
    Forced                                   : No
    Color range                              : Limited
    Color primaries                          : BT.709
    Transfer characteristics                 : BT.709
    Matrix coefficients                      : BT.709
    Statistics Tags Issue                    : mkvmerge v15.0.0 ('Duel with the Devil') 64-bit 2018-02-07 14:52:45 / mkvmerge v15.0.0 ('Duel with the Devil') 64-bit 2018-02-07 14:52:45 / UTC 2018-02-07T13:54:54Z
    FromStats_BitRate                        : 3472233
    FromStats_Duration                       : 01:39:41.935000000
    FromStats_FrameCount                     : 143423
    FromStats_StreamSize                     : 2596334424

    Audio #1
    ID                                       : 2
    Format                                   : AC-3
    Format/Info                              : Audio Coding 3
    Format settings, Endianness              : Big
    Codec ID                                 : A_AC3
    Duration                                 : 1 h 39 min
    Bit rate mode                            : Constant
    Bit rate                                 : 640 kb/s
    Channel(s)                               : 6 channels
    Channel positions                        : Front: L C R, Side: L R, LFE
    Sampling rate                            : 48.0 kHz
    Frame rate                               : 31.250 FPS (1536 SPF)
    Bit depth                                : 16 bits
    Compression mode                         : Lossy
    Stream size                              : 456 MiB (13%)
    Language                                 : Spanish
    Service kind                             : Complete Main
    Default                                  : Yes
    Forced                                   : No
    Statistics Tags Issue                    : mkvmerge v15.0.0 ('Duel with the Devil') 64-bit 2018-02-07 14:52:45 / mkvmerge v15.0.0 ('Duel with the Devil') 64-bit 2018-02-07 14:52:45 / UTC 2018-02-07T13:54:54Z
    FromStats_BitRate                        : 640000
    FromStats_Duration                       : 01:39:41.952000000
    FromStats_FrameCount                     : 186936
    FromStats_StreamSize                     : 478556160

    Audio #2
    ID                                       : 3
    Format                                   : AC-3
    Format/Info                              : Audio Coding 3
    Format settings, Endianness              : Big
    Codec ID                                 : A_AC3
    Duration                                 : 1 h 39 min
    Bit rate mode                            : Constant
    Bit rate                                 : 640 kb/s
    Channel(s)                               : 6 channels
    Channel positions                        : Front: L C R, Side: L R, LFE
    Sampling rate                            : 48.0 kHz
    Frame rate                               : 31.250 FPS (1536 SPF)
    Bit depth                                : 16 bits
    Compression mode                         : Lossy
    Stream size                              : 456 MiB (13%)
    Language                                 : English
    Service kind                             : Complete Main
    Default                                  : No
    Forced                                   : No
    Statistics Tags Issue                    : mkvmerge v15.0.0 ('Duel with the Devil') 64-bit 2018-02-07 14:52:45 / mkvmerge v15.0.0 ('Duel with the Devil') 64-bit 2018-02-07 14:52:45 / UTC 2018-02-07T13:54:54Z
    FromStats_BitRate                        : 640000
    FromStats_Duration                       : 01:39:41.952000000
    FromStats_FrameCount                     : 186936
    FromStats_StreamSize                     : 478556160

    Text #1
    ID                                       : 4
    Format                                   : UTF-8
    Codec ID                                 : S_TEXT/UTF8
    Codec ID/Info                            : UTF-8 Plain Text
    Title                                    : Forzados
    Language                                 : Spanish
    Default                                  : Yes
    Forced                                   : Yes
    Statistics Tags Issue                    : mkvmerge v15.0.0 ('Duel with the Devil') 64-bit 2018-02-07 14:52:45 / mkvmerge v15.0.0 ('Duel with the Devil') 64-bit 2018-02-07 14:52:45 / UTC 2018-02-07T13:54:54Z
    FromStats_BitRate                        : 0
    FromStats_Duration                       : 01:11:54.470000000
    FromStats_FrameCount                     : 10
    FromStats_StreamSize                     : 276

    Text #2
    ID                                       : 5
    Format                                   : UTF-8
    Codec ID                                 : S_TEXT/UTF8
    Codec ID/Info                            : UTF-8 Plain Text
    Language                                 : Spanish
    Default                                  : No
    Forced                                   : No
    Statistics Tags Issue                    : mkvmerge v15.0.0 ('Duel with the Devil') 64-bit 2018-02-07 14:52:45 / mkvmerge v15.0.0 ('Duel with the Devil') 64-bit 2018-02-07 14:52:45 / UTC 2018-02-07T13:54:54Z
    FromStats_BitRate                        : 82
    FromStats_Duration                       : 01:38:06.860000000
    FromStats_FrameCount                     : 1635
    FromStats_StreamSize                     : 60747

    Menu
    00:00:00.000                             : :00:00:00.000
    00:08:08.530                             : :00:08:08.530
    00:16:08.092                             : :00:16:08.092
    00:21:44.053                             : :00:21:44.053
    00:27:40.242                             : :00:27:40.158
    00:32:47.549                             : :00:32:47.424
    00:40:49.030                             : :00:40:49.030
    00:47:57.166                             : :00:47:57.166
    00:52:27.895                             : :00:52:27.895
    01:00:08.730                             : :01:00:08.730
    01:08:37.363                             : :01:08:37.363
    01:15:23.102                             : :01:15:23.102
    01:26:24.846                             : :01:26:24.846
    01:33:34.943                             : :01:33:34.943

  • Peso: 3.31 GiB

Sinopsis

Secuela de la película Padres por desigual (Daddy´s Home), que volverá a estar dirigida por Sean Anders. Repiten también como protagonistas Will Ferrell y Mark Wahlberg, a los que se les unirá Mel Gibson.

Ficha técnica

  • Titulo original: Daddy's Home 2
  • Fecha de lanzamiento: 09-11-2017 (United States of America)
  • Director: Sean Anders
  • Género: Comedia, Drama
  • Puntuación: 5.0 1 votos
  • Duración:
    1 h 39 min

Video trailer de la película

Enlaces de descarga

Rip de Bluray

Descargar Guerra de papás 2 (2017) 1080p Latino




Aportes de DPeliculasHDmega la pass es:dpeliculashdmega.org Aportes de CinemaniaHD la pass es:eatsouthward.com
Guardado en : Comedia , Drama

Películas relacionadas

  • Cincuenta sombras liberadas (2018) WEB-DL Latino

    2018
    Cincuenta sombras liberadas (2018) WEB-DL Latino

    0.0 1h 45m 2018

    Creyendo que han dejado atrás las sombras del pasado, los recién casados Christian y Anastasia disfrutan...

    Director: James Foley

    Género: Drama

    Actores: Tyler Hoechlin

  • Niños del hombre (2006) Full 1080p Latino

    2006
    Niños del hombre (2006) Full 1080p Latino

    0.0 1 h 49 min 2006

    Año 2027: el ser humano está al borde de la extinción: los hombres han perdido la capacidad de procrear...

    Director: Terry Needham

    Género: Acción

    Actores: Yolanda Vazquez

  • Amateur (2018) NF Webrip 1080p Latino

    2018
    Amateur (2018) NF Webrip 1080p Latino

    0.0 1h 36m 2018

    Un joven jugador de baloncesto se enfrenta a las dificultades de encajar en el nuevo equipo. Adaptación...

    Director: Ryan Koo

    Género: Drama

    Actores: Tekola Cornetet

  • Para atrapar al ladrón (1955) Full 1080p Latino

    1955
    Para atrapar al ladrón (1955) Full 1080p Latino

    0.0 1h 46m 1955

    A pesar de que John Robie "El Gato" (Cary Grant) es un ladrón de joyas reformado, se convierte en el...

    Director: Alfred Hitchcock

    Género: Crimen

    Actores: William 'Wee Willie' Davis

Comentarios 4
  • Héctor Rodrigo - 07 febrero, 2018

    Pueden subir la 1: Guerra de papas

    • Dracarys - 09 febrero, 2018

      pronto

  • Gerrard - 07 febrero, 2018

    Excelente!!! Como siempre, son los primeros en tenerla en mejor calidad!!! Dentro de cuanto mas o menos se viene la de portada gris?

    • Dracarys - 07 febrero, 2018

      dentro de 3 horas mas la portada Gris. Saludos

-->