Goon: Last of the Enforcers (2017) 1080p Latino

655 vistas
1 estrella2 estrellas3 estrellas4 estrellas5 estrellas (Ninguna valoración todavía)
Cargando…

Información de Goon: Last of the Enforcers (2017) 1080p Latino

Datos de la película

  • Calidad: 1080p
  • Audio: Español Latino AC3 5.1 Netflix - Ingles AC3 5.1 BLURAY
  • Subtitulos: Español Latino SRT- FORZADOS SRT
  • Resolución: 1920X802p
  • Formato: MKV
  • Codec: H.264
  • Encoder: Dracarys
  • Mediainfo: Clic para Mostrar Datos Ver
  • Format                                   : Matroska
    Format version                           : Version 4 / Version 2
    File size                                : 2.85 GiB
    Duration                                 : 1 h 41 min
    Overall bit rate                         : 4 021 kb/s
    Movie name                               : CinemaniaHDD.com
    Encoded date                             : UTC 2017-12-31 01:49:50 / UTC 2017-12-31T00:53:30Z
    Writing application                      : mkvmerge v15.0.0 ('Duel with the Devil') 64-bit
    Writing library                          : libebml v1.3.5 + libmatroska v1.4.5 / Lavf57.7.2

    Video
    ID                                       : 1
    Format                                   : AVC
    Format/Info                              : Advanced Video Codec
    Format profile                           : [email protected]
    Format settings                          : CABAC / 5 Ref Frames
    Format settings, CABAC                   : Yes
    Format settings, RefFrames               : 5 frames
    Codec ID                                 : V_MPEG4/ISO/AVC
    Duration                                 : 1 h 41 min
    Bit rate                                 : 3 500 kb/s
    Width                                    : 1 920 pixels
    Height                                   : 802 pixels
    Display aspect ratio                     : 2.40:1
    Frame rate mode                          : Constant
    Frame rate                               : 23.976 (24000/1001) FPS
    Color space                              : YUV
    Chroma subsampling                       : 4:2:0
    Bit depth                                : 8 bits
    Scan type                                : Progressive
    Bits/(Pixel*Frame)                       : 0.095
    Stream size                              : 2.39 GiB (84%)
    Title                                    : Goon Last of the Enforcers (2017) 1080p Latino
    Writing library                          : x264 core 148 r2708 86b7198
    Encoding settings                        : cabac=1 / ref=5 / deblock=1:0:0 / analyse=0x3:0x113 / me=umh / subme=8 / psy=1 / psy_rd=1.00:0.00 / mixed_ref=1 / me_range=16 / chroma_me=1 / trellis=1 / 8x8dct=1 / cqm=0 / deadzone=21,11 / fast_pskip=1 / chroma_qp_offset=-2 / threads=25 / lookahead_threads=4 / sliced_threads=0 / nr=0 / decimate=1 / interlaced=0 / bluray_compat=0 / constrained_intra=0 / bframes=3 / b_pyramid=2 / b_adapt=2 / b_bias=0 / direct=3 / weightb=1 / open_gop=0 / weightp=2 / keyint=240 / keyint_min=24 / scenecut=40 / intra_refresh=0 / rc_lookahead=50 / rc=abr / mbtree=1 / bitrate=3500 / ratetol=1.0 / qcomp=0.60 / qpmin=0 / qpmax=69 / qpstep=4 / vbv_maxrate=62500 / vbv_bufsize=78125 / nal_hrd=none / filler=0 / ip_ratio=1.40 / aq=1:1.00
    Language                                 : English
    Default                                  : Yes
    Forced                                   : No
    Color range                              : Limited
    Color primaries                          : BT.709
    Transfer characteristics                 : BT.709
    Matrix coefficients                      : BT.709
    Statistics Tags Issue                    : mkvmerge v15.0.0 ('Duel with the Devil') 64-bit 2017-12-31 01:49:50 / mkvmerge v15.0.0 ('Duel with the Devil') 64-bit 2017-12-31 01:49:50 / UTC 2017-12-31T00:53:30Z
    FromStats_BitRate                        : 3461293
    FromStats_Duration                       : 01:41:03.016000000
    FromStats_FrameCount                     : 145367
    FromStats_StreamSize                     : 2623234444

    Audio #1
    ID                                       : 2
    Format                                   : E-AC-3
    Format/Info                              : Enhanced Audio Coding 3
    Format settings, Endianness              : Big
    Codec ID                                 : A_EAC3
    Duration                                 : 1 h 41 min
    Bit rate mode                            : Constant
    Bit rate                                 : 192 kb/s
    Channel(s)                               : 6 channels
    Channel positions                        : Front: L C R, Side: L R, LFE
    Sampling rate                            : 48.0 kHz
    Frame rate                               : 187.500 FPS (256 SPF)
    Compression mode                         : Lossy
    Delay relative to video                  : -5 ms
    Stream size                              : 139 MiB (5%)
    Language                                 : Spanish
    Service kind                             : Complete Main
    Default                                  : Yes
    Forced                                   : No
    Statistics Tags Issue                    : mkvmerge v15.0.0 ('Duel with the Devil') 64-bit 2017-12-31 01:49:50 / mkvmerge v15.0.0 ('Duel with the Devil') 64-bit 2017-12-31 01:49:50 / UTC 2017-12-31T00:53:30Z
    FromStats_BitRate                        : 192000
    FromStats_Duration                       : 01:41:32.576000000
    FromStats_FrameCount                     : 190393
    FromStats_StreamSize                     : 146221824

    Audio #2
    ID                                       : 3
    Format                                   : AC-3
    Format/Info                              : Audio Coding 3
    Format settings, Endianness              : Big
    Codec ID                                 : A_AC3
    Duration                                 : 1 h 41 min
    Bit rate mode                            : Constant
    Bit rate                                 : 384 kb/s
    Channel(s)                               : 6 channels
    Channel positions                        : Front: L C R, Side: L R, LFE
    Sampling rate                            : 48.0 kHz
    Frame rate                               : 31.250 FPS (1536 SPF)
    Bit depth                                : 16 bits
    Compression mode                         : Lossy
    Delay relative to video                  : -5 ms
    Stream size                              : 279 MiB (10%)
    Language                                 : English
    Service kind                             : Complete Main
    Default                                  : No
    Forced                                   : No
    Statistics Tags Issue                    : mkvmerge v15.0.0 ('Duel with the Devil') 64-bit 2017-12-31 01:49:50 / mkvmerge v15.0.0 ('Duel with the Devil') 64-bit 2017-12-31 01:49:50 / UTC 2017-12-31T00:53:30Z
    FromStats_BitRate                        : 384000
    FromStats_Duration                       : 01:41:03.008000000
    FromStats_FrameCount                     : 189469
    FromStats_StreamSize                     : 291024384

    Text #1
    ID                                       : 4
    Format                                   : UTF-8
    Codec ID                                 : S_TEXT/UTF8
    Codec ID/Info                            : UTF-8 Plain Text
    Language                                 : Spanish
    Default                                  : Yes
    Forced                                   : Yes
    Statistics Tags Issue                    : mkvmerge v15.0.0 ('Duel with the Devil') 64-bit 2017-12-31 01:49:50 / mkvmerge v15.0.0 ('Duel with the Devil') 64-bit 2017-12-31 01:49:50 / UTC 2017-12-31T00:53:30Z
    FromStats_BitRate                        : 1
    FromStats_Duration                       : 01:15:00.955000000
    FromStats_FrameCount                     : 24
    FromStats_StreamSize                     : 808

    Text #2
    ID                                       : 5
    Format                                   : UTF-8
    Codec ID                                 : S_TEXT/UTF8
    Codec ID/Info                            : UTF-8 Plain Text
    Language                                 : Spanish
    Default                                  : No
    Forced                                   : No
    Statistics Tags Issue                    : mkvmerge v15.0.0 ('Duel with the Devil') 64-bit 2017-12-31 01:49:50 / mkvmerge v15.0.0 ('Duel with the Devil') 64-bit 2017-12-31 01:49:50 / UTC 2017-12-31T00:53:30Z
    FromStats_BitRate                        : 100
    FromStats_Duration                       : 01:40:13.215000000
    FromStats_FrameCount                     : 1572
    FromStats_StreamSize                     : 75360

    Menu
    00:00:00.000                             : :00:00:00.000
    00:11:52.420                             : :00:11:52.420
    00:24:36.308                             : :00:24:36.308
    00:42:01.060                             : :00:42:01.060
    00:57:28.403                             : :00:57:28.403
    01:12:08.157                             : :01:12:08.157
    01:27:54.853                             : :01:27:54.853
    01:35:18.880                             : :01:35:18.880

  • Peso: 2.85 GiB

Sinopsis

Secuela de “Goon” (2011). Jugadores nuevos y conocidos se reúnen para una nueva temporada de los Halifax Highlanders, pero Doug, el corazón del equipo, no está en la plantilla. Marginado, Doug está a punto de colgar los patines y dedicarse a su familia y su trabajo, pero cuando descubre que su némesis, Anders Cain, es nombrado capitán y que los nuevos dueños podrían destrozar el equipo, se ve obligado a entrar en acción.

Ficha técnica

  • Titulo original: Goon: Last of the Enforcers
  • Fecha de lanzamiento: 17-03-2017 (Canada)
  • Director: Carolyn Arbuckle, Jay Baruchel
  • Género: Comedia
  • Puntuación: 0.0 0 votos
  • Duración:
    1h 41m

Video trailer de la película

Enlaces de descarga

Rip de Bluray

Descargar Goon: Last of the Enforcers (2017) 1080p Latino




Aportes de DPeliculasHDmega la pass es:dpeliculashdmega.org Aportes de CinemaniaHD la pass es:eatsouthward.com
Guardado en : Comedia

Películas relacionadas

  • Dude (2018) NF 1080p Latino

    2018
    Dude (2018) NF 1080p Latino

    0.0 1h 30m 2018

    Cuatro mejores amigas se tienen que enfrentar a su nueva vida. Las dos últimas semanas de instituto...

    Director: Olivia Milch

    Género: Comedia

    Actores: Sydney Lucas

  • Gun shy (2017) 1080p Latino

    2017
    Gun shy (2017) 1080p Latino

    0.0 1h 31m 2017

    Basada en la novela homónima de Mark Haskell Smith. Turk Henry es una antigua estrella de rock con sobrepeso...

    Director: Simon West

    Género: Acción

    Actores: Sebastián Apiolaza

  • Se dice de mí (2010) Full 1080p Latino

    2010
    Se dice de mí (2010) Full 1080p Latino

    5.0 1 h 32 min 2010

    El guión, obra del dramaturgo Bert V. Royal, es una versión moderna y en clave estudiantil de “La...

    Director: Will Sandoval

    Género: Comedia

    Actores: Zack Kennedy

  • Rebeldes con causa (2007) Full 1080p Latino

    2007
    Rebeldes con causa (2007) Full 1080p Latino

    5.0 1h 39m 2007

    Cuatro amigos de mediana edad (Travolta, Allen, Lawrence y H. Macy), entusiastas de las motos, deciden...

    Director: Walt Becker

    Género: Acción

    Actores: William H. Macy

  • Marley y yo (2008) Full 1080p Latino

    2008
    Marley y yo (2008) Full 1080p Latino

    5.0 1 h 55 min 2008

    Los recién casados John y Jenny Grogan deciden dejar atrás los duros inviernos de Michigan para instalarse...

    Director: Sheila Waldron

    Género: Comedia

    Actores: Zabryna Guevara

Comentarios 4
  • snj - 01 enero, 2018

    Hola
    pueden subir la 1 que es del 2011, ya que esta es la 2

    • dpelis - 02 enero, 2018

      se agregara

  • snj - 31 diciembre, 2017

    Hola
    el audio latino es final?

    • Dpelis2 - 31 diciembre, 2017

      Hola. Si, ya que el bluray no tiene Latino! el de Netflix es el mejor que exsiste.

-->