Game of Thrones: The Complete Seventh Season (2017) Full 1080p Latino

3.040 vistas
1 estrella2 estrellas3 estrellas4 estrellas5 estrellas (2 votos, promedio: 4,50 de 5)
Cargando…

Información de Game of Thrones: The Complete Seventh Season (2017) Full 1080p Latino

Datos de la película

  • Calidad: Full 1080p
  • Audio: Español Latino AC3 2.0 BLURAY - Ingles AC3 5.1 BLURAY
  • Subtitulos: Español Latino PGS - Ingles PGS
  • Resolución: 1920X1080
  • Formato: MKV
  • Codec: H.264
  • Encoder: Dpelis
  • Mediainfo: Clic para Mostrar Datos Ver
  • Format                                   : Matroska
    Format version                           : Version 4 / Version 2
    File size                                : 2.44 GiB
    Duration                                 : 1 h 2 min
    Overall bit rate                         : 5 608 kb/s
    Movie name                               : dpeliculashdmega.org
    Encoded date                             : UTC 2017-12-01 23:56:08 / UTC 2017-12-01T04:01:21Z
    Writing application                      : mkvmerge v15.0.0 ('Duel with the Devil') 64-bit
    Writing library                          : libebml v1.3.5 + libmatroska v1.4.5 / Lavf57.7.2

    Video
    ID                                       : 1
    Format                                   : AVC
    Format/Info                              : Advanced Video Codec
    Format profile                           : [email protected]
    Format settings                          : CABAC / 4 Ref Frames
    Format settings, CABAC                   : Yes
    Format settings, RefFrames               : 4 frames
    Codec ID                                 : V_MPEG4/ISO/AVC
    Duration                                 : 1 h 2 min
    Bit rate                                 : 4 601 kb/s
    Width                                    : 1 920 pixels
    Height                                   : 1 080 pixels
    Display aspect ratio                     : 16:9
    Frame rate mode                          : Constant
    Frame rate                               : 23.976 (24000/1001) FPS
    Color space                              : YUV
    Chroma subsampling                       : 4:2:0
    Bit depth                                : 8 bits
    Scan type                                : Progressive
    Bits/(Pixel*Frame)                       : 0.093
    Stream size                              : 2.01 GiB (82%)
    Title                                    : Game of Thrones The Complete Seventh Season (2017) Ep-03 Full 1080p Latino
    Writing library                          : x264 core 148 r2708 86b7198
    Encoding settings                        : cabac=1 / ref=4 / deblock=1:0:0 / analyse=0x3:0x133 / me=esa / subme=10 / psy=1 / psy_rd=1.00:0.00 / mixed_ref=1 / me_range=24 / chroma_me=1 / trellis=2 / 8x8dct=1 / cqm=0 / deadzone=21,11 / fast_pskip=1 / chroma_qp_offset=-2 / threads=34 / lookahead_threads=5 / sliced_threads=0 / nr=0 / decimate=1 / interlaced=0 / bluray_compat=0 / constrained_intra=0 / bframes=8 / b_pyramid=2 / b_adapt=2 / b_bias=0 / direct=3 / weightb=1 / open_gop=0 / weightp=2 / keyint=240 / keyint_min=24 / scenecut=40 / intra_refresh=0 / rc_lookahead=60 / rc=crf / mbtree=1 / crf=20.0 / qcomp=0.60 / qpmin=0 / qpmax=69 / qpstep=4 / vbv_maxrate=62500 / vbv_bufsize=78125 / crf_max=0.0 / nal_hrd=none / filler=0 / ip_ratio=1.40 / aq=1:1.00
    Default                                  : Yes
    Forced                                   : No
    Color range                              : Limited
    Color primaries                          : BT.709
    Transfer characteristics                 : BT.709
    Matrix coefficients                      : BT.709
    Statistics Tags Issue                    : mkvmerge v15.0.0 ('Duel with the Devil') 64-bit 2017-12-01 23:56:08 / mkvmerge v15.0.0 ('Duel with the Devil') 64-bit 2017-12-01 23:56:08 / UTC 2017-12-01T04:01:21Z
    FromStats_BitRate                        : 4684609
    FromStats_Duration                       : 01:02:24.283000000
    FromStats_FrameCount                     : 89773
    FromStats_StreamSize                     : 2192562818

    Audio #1
    ID                                       : 2
    Format                                   : AC-3
    Format/Info                              : Audio Coding 3
    Mode                                     : Dolby Digital
    Format settings, Endianness              : Big
    Codec ID                                 : A_AC3
    Duration                                 : 1 h 2 min
    Bit rate mode                            : Constant
    Bit rate                                 : 256 kb/s
    Channel(s)                               : 2 channels
    Channel positions                        : Front: L R
    Sampling rate                            : 48.0 kHz
    Frame rate                               : 31.250 FPS (1536 SPF)
    Bit depth                                : 16 bits
    Compression mode                         : Lossy
    Stream size                              : 114 MiB (5%)
    Title                                    : Latino-AC3
    Language                                 : Spanish
    Service kind                             : Complete Main
    Default                                  : Yes
    Forced                                   : Yes
    Statistics Tags Issue                    : mkvmerge v15.0.0 ('Duel with the Devil') 64-bit 2017-12-01 23:56:08 / mkvmerge v15.0.0 ('Duel with the Devil') 64-bit 2017-12-01 23:56:08 / UTC 2017-12-01T04:01:21Z
    FromStats_BitRate                        : 256000
    FromStats_Duration                       : 01:02:24.288000000
    FromStats_FrameCount                     : 117009
    FromStats_StreamSize                     : 119817216

    Audio #2
    ID                                       : 3
    Format                                   : AC-3
    Format/Info                              : Audio Coding 3
    Format settings, Endianness              : Big
    Codec ID                                 : A_AC3
    Duration                                 : 1 h 2 min
    Bit rate mode                            : Constant
    Bit rate                                 : 640 kb/s
    Channel(s)                               : 6 channels
    Channel positions                        : Front: L C R, Side: L R, LFE
    Sampling rate                            : 48.0 kHz
    Frame rate                               : 31.250 FPS (1536 SPF)
    Bit depth                                : 16 bits
    Compression mode                         : Lossy
    Stream size                              : 286 MiB (11%)
    Title                                    : Ingles-AC3
    Language                                 : English
    Service kind                             : Complete Main
    Default                                  : No
    Forced                                   : No
    Statistics Tags Issue                    : mkvmerge v15.0.0 ('Duel with the Devil') 64-bit 2017-12-01 23:56:08 / mkvmerge v15.0.0 ('Duel with the Devil') 64-bit 2017-12-01 23:56:08 / UTC 2017-12-01T04:01:21Z
    FromStats_BitRate                        : 640000
    FromStats_Duration                       : 01:02:24.288000000
    FromStats_FrameCount                     : 117009
    FromStats_StreamSize                     : 299543040

    Text #1
    ID                                       : 4
    Format                                   : PGS
    Muxing mode                              : zlib
    Codec ID                                 : S_HDMV/PGS
    Codec ID/Info                            : Picture based subtitle format used on BDs/HD-DVDs
    Language                                 : Spanish
    Default                                  : Yes
    Forced                                   : No
    Statistics Tags Issue                    : mkvmerge v15.0.0 ('Duel with the Devil') 64-bit 2017-12-01 23:56:08 / mkvmerge v15.0.0 ('Duel with the Devil') 64-bit 2017-12-01 23:56:08 / UTC 2017-12-01T04:01:21Z
    FromStats_BitRate                        : 45114
    FromStats_Duration                       : 00:58:08.819000000
    FromStats_FrameCount                     : 1866
    FromStats_StreamSize                     : 19674436

    Text #2
    ID                                       : 5
    Format                                   : PGS
    Muxing mode                              : zlib
    Codec ID                                 : S_HDMV/PGS
    Codec ID/Info                            : Picture based subtitle format used on BDs/HD-DVDs
    Language                                 : English
    Default                                  : No
    Forced                                   : No
    Statistics Tags Issue                    : mkvmerge v15.0.0 ('Duel with the Devil') 64-bit 2017-12-01 23:56:08 / mkvmerge v15.0.0 ('Duel with the Devil') 64-bit 2017-12-01 23:56:08 / UTC 2017-12-01T04:01:21Z
    FromStats_BitRate                        : 47300
    FromStats_Duration                       : 00:58:08.819000000
    FromStats_FrameCount                     : 1952
    FromStats_StreamSize                     : 20627884

    Menu
    00:00:00.000                             : :Chapter 1
    00:01:54.740                             : :Chapter 2
    00:07:52.639                             : :Chapter 3
    00:18:23.728                             : :Chapter 4
    00:32:22.649                             : :Chapter 5
    00:40:01.983                             : :Chapter 6
    00:50:45.501                             : :Chapter 7
    01:01:04.077                             : :Chapter 8

  • Peso: Aproximadamente 2.5 GiB X Capitulo

Sinopsis

Juego de Tronos es una serie de televisión de drama y fantasía creada para la HBO por David Benioff y D. B. Weiss. Es una adaptación de la saga de novelas de fantasía Canción de Hielo y Fuego de George R. R. Martin. La primera de las novelas es la que da nombre a la serie.

La serie, ambientada en los continentes ficticios de Westeros y Essos al final de un verano de una decada de duración, entrelaza varias líneas argumentales. La primera sigue a los miembros de varias casas nobles inmersos en una guerra civil por conseguir el Trono de Hierro de los Siete Reinos. La segunda trata sobre la creciente amenaza de un inminente invierno y sobre las temibles criaturas del norte. La tercera relata los esfuerzos por reclamar el trono de los últimos miembros exiliados de una dinastía destronada. A pesar de sus personajes moralmente ambiguos, la serie profundiza en los problemas de la jerarquía social, religión, lealtad, corrupción, sexo, guerra civil, crimen y castigo.

Ficha técnica

Video trailer de la película

Enlaces de descarga

Rip de Bluray

Descargar Game of Thrones: The Complete Seventh Season (2017) Full 1080p Latino




Aportes de DPeliculasHDmega la pass es:dpeliculashdmega.org Aportes de CinemaniaHD la pass es:eatsouthward.com

Películas relacionadas

  • A Ghost Story (2017) 1080p Latino

    2017
    A Ghost Story (2017) 1080p Latino

    0.0 1h 27m 2017

    Un hombre recientemente fallecido regresa a su casa como un fantasma vestido con una sábana blanca para...

    Director: David Lowery

    Género: Drama

    Actores: Yasmina Gutierrez

  • Maze Runner prueba de fuego (2015) Full 1080p Latino

    2015
    Maze Runner prueba de fuego (2015) Full 1080p Latino

    5.0 2 h 11 min 2015

    En este nuevo capítulo de la trepidante saga "El Corredor del Laberinto", Thomas (Dylan O'Brien) y el...

    Director: Wes Ball

    Género: Acción

    Actores: Thomas Brodie-Sangster

  • Maze Runner correr o morir (2014) Full 1080p Latino

    2014
    Maze Runner correr o morir (2014) Full 1080p Latino

    5.0 1 h 53 min 2014

    Thomas abre los ojos y se da cuenta que está en un ascensor. Lo extraño es que no recuerda nada, ni...

    Director: Wes Ball

    Género: Acción

    Actores: Will Poulter

  • Se dice de mí (2010) Full 1080p Latino

    2010
    Se dice de mí (2010) Full 1080p Latino

    5.0 1 h 32 min 2010

    El guión, obra del dramaturgo Bert V. Royal, es una versión moderna y en clave estudiantil de “La...

    Director: Will Sandoval

    Género: Comedia

    Actores: Zack Kennedy

  • Rebeldes con causa (2007) Full 1080p Latino

    2007
    Rebeldes con causa (2007) Full 1080p Latino

    5.0 1h 39m 2007

    Cuatro amigos de mediana edad (Travolta, Allen, Lawrence y H. Macy), entusiastas de las motos, deciden...

    Director: Walt Becker

    Género: Acción

    Actores: William H. Macy

Comentarios 10
  • Cesar Davila - 06 diciembre, 2017

    ¡Hola! Podrías compartir los subtítulos de esta temporada en calidad Blu-ray pero en formato SRT, por fa?
    No todas las TV’s reconocen los que tiene por default.
    De antemano, gracias! ¡Son la mejore página!

    • dpelis - 06 diciembre, 2017

      no tengo subtitulos SRT, seguro han de estar en subdix

  • Amador Constante - 05 diciembre, 2017

    Gracias Dpelis, este es un buen regalo para navidad, la mejor serie para disfrutarla en familia, ¡a mi mujer le fascina!, y ella quiere en la mejor calidad, la que ustedes ofrecen es óptima en audio y vídeo para no perder ni un detalle, mil gracias una ves más.

    buena suerte +

  • Oswaldo - 03 diciembre, 2017

    Hola, muchas gracias por esos tremendos aportes muy agradecido con ustedes, muchos saludos desde Colombia

  • geovanny - 02 diciembre, 2017

    Subiras tambien las demas temporadas en esta calidad??

    • Dpelis2 - 02 diciembre, 2017

      Ya estan publicadas

      • Seiyayin - 04 diciembre, 2017

        Hola, estuve buscando en la pagina antigua y esta pagina y no encontré las temporadas anteriores en calidad plateada, sólo están en negra 720p y en dorada HDTV.
        Sería de agrado de muchos si las suben todas en plateada como esta temporada para tener la colección con la calidad que los caracteriza.
        Abrazos 🙂

  • dantor - 02 diciembre, 2017

    y que paso con los link de mega

    • Dpelis2 - 02 diciembre, 2017

      estaran en 1 hora

-->