Frozen: una aventura congelada (2013) Full 1080p Latino

907 vistas
1 estrella2 estrellas3 estrellas4 estrellas5 estrellas (1 votos, promedio: 5,00 de 5)
Cargando…

Información de Frozen: una aventura congelada (2013) Full 1080p Latino

Datos de la película

  • Calidad: Full 1080p
  • Audio: Español Latino AC3 5.1 BLURAY - Ingles DTS 5.1 BLURAY
  • Subtitulos: Español Latino PGS - Ingles PGS
  • Resolución: 1920X1080
  • Formato: MKV
  • Codec: H.264
  • Encoder: Dracarys
  • Mediainfo: Clic para Mostrar Datos Ver
  • Format                                   : Matroska
    Format version                           : Version 4 / Version 2
    File size                                : 3.95 GiB
    Duration                                 : 1 h 42 min
    Overall bit rate                         : 5 533 kb/s
    Movie name                               : CinemaniaHDD.com
    Encoded date                             : UTC 2017-12-15 04:30:40 / UTC 2017-12-14T07:18:49Z
    Writing application                      : mkvmerge v15.0.0 ('Duel with the Devil') 64-bit
    Writing library                          : libebml v1.3.5 + libmatroska v1.4.5 / Lavf57.7.2

    Video
    ID                                       : 1
    Format                                   : AVC
    Format/Info                              : Advanced Video Codec
    Format profile                           : [email protected]
    Format settings                          : CABAC / 4 Ref Frames
    Format settings, CABAC                   : Yes
    Format settings, RefFrames               : 4 frames
    Codec ID                                 : V_MPEG4/ISO/AVC
    Duration                                 : 1 h 42 min
    Bit rate                                 : 3 274 kb/s
    Width                                    : 1 920 pixels
    Height                                   : 1 080 pixels
    Display aspect ratio                     : 16:9
    Frame rate mode                          : Constant
    Frame rate                               : 23.976 (24000/1001) FPS
    Color space                              : YUV
    Chroma subsampling                       : 4:2:0
    Bit depth                                : 8 bits
    Scan type                                : Progressive
    Bits/(Pixel*Frame)                       : 0.066
    Stream size                              : 2.34 GiB (59%)
    Title                                    : Frozen una aventura congelada (2013) Full 1080p Latino
    Writing library                          : x264 core 148 r2708 86b7198
    Encoding settings                        : cabac=1 / ref=4 / deblock=1:0:0 / analyse=0x3:0x133 / me=esa / subme=10 / psy=1 / psy_rd=1.00:0.00 / mixed_ref=1 / me_range=24 / chroma_me=1 / trellis=2 / 8x8dct=1 / cqm=0 / deadzone=21,11 / fast_pskip=1 / chroma_qp_offset=-2 / threads=34 / lookahead_threads=5 / sliced_threads=0 / nr=0 / decimate=1 / interlaced=0 / bluray_compat=0 / constrained_intra=0 / bframes=8 / b_pyramid=2 / b_adapt=2 / b_bias=0 / direct=3 / weightb=1 / open_gop=0 / weightp=2 / keyint=240 / keyint_min=24 / scenecut=40 / intra_refresh=0 / rc_lookahead=60 / rc=crf / mbtree=1 / crf=20.0 / qcomp=0.60 / qpmin=0 / qpmax=69 / qpstep=4 / vbv_maxrate=62500 / vbv_bufsize=78125 / crf_max=0.0 / nal_hrd=none / filler=0 / ip_ratio=1.40 / aq=1:1.00
    Language                                 : English
    Default                                  : Yes
    Forced                                   : No
    Color range                              : Limited
    Color primaries                          : BT.709
    Transfer characteristics                 : BT.709
    Matrix coefficients                      : BT.709
    Statistics Tags Issue                    : mkvmerge v15.0.0 ('Duel with the Devil') 64-bit 2017-12-15 04:30:40 / mkvmerge v15.0.0 ('Duel with the Devil') 64-bit 2017-12-15 04:30:40 / UTC 2017-12-14T07:18:49Z
    FromStats_BitRate                        : 3355229
    FromStats_Duration                       : 01:42:13.044000000
    FromStats_FrameCount                     : 147046
    FromStats_StreamSize                     : 2572221573

    Audio #1
    ID                                       : 2
    Format                                   : AC-3
    Format/Info                              : Audio Coding 3
    Format settings, Endianness              : Big
    Codec ID                                 : A_AC3
    Duration                                 : 1 h 42 min
    Bit rate mode                            : Constant
    Bit rate                                 : 640 kb/s
    Channel(s)                               : 6 channels
    Channel positions                        : Front: L C R, Side: L R, LFE
    Sampling rate                            : 48.0 kHz
    Frame rate                               : 31.250 FPS (1536 SPF)
    Bit depth                                : 16 bits
    Compression mode                         : Lossy
    Stream size                              : 468 MiB (12%)
    Title                                    : Latino-BluRay
    Language                                 : Spanish
    Service kind                             : Complete Main
    Default                                  : Yes
    Forced                                   : No
    Statistics Tags Issue                    : mkvmerge v15.0.0 ('Duel with the Devil') 64-bit 2017-12-15 04:30:40 / mkvmerge v15.0.0 ('Duel with the Devil') 64-bit 2017-12-15 04:30:40 / UTC 2017-12-14T07:18:49Z
    FromStats_BitRate                        : 640000
    FromStats_Duration                       : 01:42:13.120000000
    FromStats_FrameCount                     : 191660
    FromStats_StreamSize                     : 490649600

    Audio #2
    ID                                       : 3
    Format                                   : DTS
    Format/Info                              : Digital Theater Systems
    Mode                                     : 16
    Format settings, Endianness              : Big
    Codec ID                                 : A_DTS
    Duration                                 : 1 h 42 min
    Bit rate mode                            : Constant
    Bit rate                                 : 1 509 kb/s
    Channel(s)                               : 6 channels
    Channel positions                        : Front: L C R, Side: L R, LFE
    Sampling rate                            : 48.0 kHz
    Frame rate                               : 93.750 FPS (512 SPF)
    Bit depth                                : 24 bits
    Compression mode                         : Lossy
    Stream size                              : 1.08 GiB (27%)
    Title                                    : Ingles-Bluray
    Language                                 : English
    Default                                  : No
    Forced                                   : No
    Statistics Tags Issue                    : mkvmerge v15.0.0 ('Duel with the Devil') 64-bit 2017-12-15 04:30:40 / mkvmerge v15.0.0 ('Duel with the Devil') 64-bit 2017-12-15 04:30:40 / UTC 2017-12-14T07:18:49Z
    FromStats_BitRate                        : 1508999
    FromStats_Duration                       : 01:42:13.078000000
    FromStats_FrameCount                     : 574976
    FromStats_StreamSize                     : 1156851712

    Text #1
    ID                                       : 4
    Format                                   : PGS
    Muxing mode                              : zlib
    Codec ID                                 : S_HDMV/PGS
    Codec ID/Info                            : Picture based subtitle format used on BDs/HD-DVDs
    Language                                 : Spanish
    Default                                  : No
    Forced                                   : No
    Statistics Tags Issue                    : mkvmerge v15.0.0 ('Duel with the Devil') 64-bit 2017-12-15 04:30:40 / mkvmerge v15.0.0 ('Duel with the Devil') 64-bit 2017-12-15 04:30:40 / UTC 2017-12-14T07:18:49Z
    FromStats_BitRate                        : 34647
    FromStats_Duration                       : 01:40:19.337000000
    FromStats_FrameCount                     : 3008
    FromStats_StreamSize                     : 26069197

    Text #2
    ID                                       : 5
    Format                                   : PGS
    Muxing mode                              : zlib
    Codec ID                                 : S_HDMV/PGS
    Codec ID/Info                            : Picture based subtitle format used on BDs/HD-DVDs
    Language                                 : English
    Default                                  : No
    Forced                                   : No
    Statistics Tags Issue                    : mkvmerge v15.0.0 ('Duel with the Devil') 64-bit 2017-12-15 04:30:40 / mkvmerge v15.0.0 ('Duel with the Devil') 64-bit 2017-12-15 04:30:40 / UTC 2017-12-14T07:18:49Z
    FromStats_BitRate                        : 44050
    FromStats_Duration                       : 01:41:51.557000000
    FromStats_FrameCount                     : 3990
    FromStats_StreamSize                     : 33652479

    Menu
    00:00:00.000                             : :Chapter 1
    00:05:59.860                             : :Chapter 2
    00:11:37.989                             : :Chapter 3
    00:19:53.776                             : :Chapter 4
    00:31:03.236                             : :Chapter 5
    00:38:39.526                             : :Chapter 6
    00:44:21.325                             : :Chapter 7
    00:50:51.549                             : :Chapter 8
    00:57:48.423                             : :Chapter 9
    01:02:57.440                             : :Chapter 10
    01:09:36.089                             : :Chapter 11
    01:13:34.911                             : :Chapter 12
    01:18:07.641                             : :Chapter 13
    01:22:33.782                             : :Chapter 14
    01:27:10.851                             : :Chapter 15
    01:32:33.506                             : :Chapter 16

  • Peso: 3.95 GiB

Sinopsis

Cuando una profecía condena a un reino a un invierno eterno, Anna, una joven optimista se une a un temerario montañero llamado Kristoff y a su compinche el reno Sven. Juntos emprenden un viaje épico en busca de Elsa, hermana de Anna y Reina de las Nieves para poner fin al gélido hechizo. Adaptación del cuento “La reina de las nieves”.

Ficha técnica

Video trailer de la película

Enlaces de descarga

Rip de Bluray

Descargar Frozen: una aventura congelada (2013) Full 1080p Latino




Aportes de DPeliculasHDmega la pass es:dpeliculashdmega.org Aportes de CinemaniaHD la pass es:eatsouthward.com

Películas relacionadas

  • Gun shy (2017) 1080p Latino

    2017
    Gun shy (2017) 1080p Latino

    0.0 1h 31m 2017

    Basada en la novela homónima de Mark Haskell Smith. Turk Henry es una antigua estrella de rock con sobrepeso...

    Director: Simon West

    Género: Acción

    Actores: Sebastián Apiolaza

  • Maze Runner prueba de fuego (2015) Full 1080p Latino

    2015
    Maze Runner prueba de fuego (2015) Full 1080p Latino

    5.0 2 h 11 min 2015

    En este nuevo capítulo de la trepidante saga "El Corredor del Laberinto", Thomas (Dylan O'Brien) y el...

    Director: Wes Ball

    Género: Acción

    Actores: Thomas Brodie-Sangster

  • Maze Runner correr o morir (2014) Full 1080p Latino

    2014
    Maze Runner correr o morir (2014) Full 1080p Latino

    5.0 1 h 53 min 2014

    Thomas abre los ojos y se da cuenta que está en un ascensor. Lo extraño es que no recuerda nada, ni...

    Director: Wes Ball

    Género: Acción

    Actores: Will Poulter

  • Se dice de mí (2010) Full 1080p Latino

    2010
    Se dice de mí (2010) Full 1080p Latino

    5.0 1 h 32 min 2010

    El guión, obra del dramaturgo Bert V. Royal, es una versión moderna y en clave estudiantil de “La...

    Director: Will Sandoval

    Género: Comedia

    Actores: Zack Kennedy

  • Rebeldes con causa (2007) Full 1080p Latino

    2007
    Rebeldes con causa (2007) Full 1080p Latino

    5.0 1h 39m 2007

    Cuatro amigos de mediana edad (Travolta, Allen, Lawrence y H. Macy), entusiastas de las motos, deciden...

    Director: Walt Becker

    Género: Acción

    Actores: William H. Macy

Comentarios 7
  • Tio Higuera - 18 diciembre, 2017

    Gracias por subirlas a google drive.
    todo bien.

  • Hans12 - 15 diciembre, 2017

    Gracias por la peliculas podrias subir tambien Enredados 2010

    • Dpelis2 - 15 diciembre, 2017

      Pronto. Saludos

  • TorukmaTo - 15 diciembre, 2017

    hola amigo….saludos…siempre posteas lo mejor de lo mejor….pero no se si estoy pidiendo de masiado pero aver si puedes postear las peliculas de duro de matar todas creo q son 5…searia genial tenerlas en tan buena calidad como simpre las posteas..gracias de antemanos…feliz naviadad prospero año 2018…Y todo Tu comp fam…..Gracias!!

    • Dpelis2 - 15 diciembre, 2017

      Hola amigo Esas ya las tengo pensadas y las ando preparando para inicios de enero se vienen todas juntas.
      También feliz navidad para tu saludos…

  • iDeztrukxion - 15 diciembre, 2017

    El past viene con usuario y contraseña en los enlaces públicos!

    • Dpelis2 - 15 diciembre, 2017

      Arreglado una disculpa

-->