Fenómenos de la naturaleza (2015) Full 1080p Latino

806 vistas
1 estrella2 estrellas3 estrellas4 estrellas5 estrellas (1 votos, promedio: 3,00 de 5)
Cargando…

Información de Fenómenos de la naturaleza (2015) Full 1080p Latino

Datos de la película

  • Calidad: Full 1080p
  • Audio: Español Latino AC3 5.1 BLURAY - Ingles DTS 5.1 BLURAY
  • Subtitulos: Español Latino PGS - Ingles PGS
  • Resolución: 1920X1080p
  • Formato: MKV
  • Codec: H.264
  • Encoder: Dracarys
  • Mediainfo: Clic para Mostrar Datos Ver
  • Format                                   : Matroska
    Format version                           : Version 4 / Version 2
    File size                                : 4.83 GiB
    Duration                                 : 1 h 32 min
    Overall bit rate                         : 7 474 kb/s
    Movie name                               : CinemaniaHDD.com
    Encoded date                             : UTC 2017-12-21 05:04:30 / UTC 2017-12-20T13:32:24Z
    Writing application                      : mkvmerge v15.0.0 ('Duel with the Devil') 64-bit
    Writing library                          : libebml v1.3.5 + libmatroska v1.4.5 / Lavf57.7.2

    Video
    ID                                       : 1
    Format                                   : AVC
    Format/Info                              : Advanced Video Codec
    Format profile                           : [email protected]
    Format settings                          : CABAC / 4 Ref Frames
    Format settings, CABAC                   : Yes
    Format settings, RefFrames               : 4 frames
    Codec ID                                 : V_MPEG4/ISO/AVC
    Duration                                 : 1 h 32 min
    Bit rate                                 : 5 176 kb/s
    Width                                    : 1 920 pixels
    Height                                   : 1 080 pixels
    Display aspect ratio                     : 16:9
    Frame rate mode                          : Constant
    Frame rate                               : 23.976 (24000/1001) FPS
    Color space                              : YUV
    Chroma subsampling                       : 4:2:0
    Bit depth                                : 8 bits
    Scan type                                : Progressive
    Bits/(Pixel*Frame)                       : 0.104
    Stream size                              : 3.35 GiB (69%)
    Title                                    : Fenómenos de la naturaleza (2015) Full 1080p Latino
    Writing library                          : x264 core 148 r2708 86b7198
    Encoding settings                        : cabac=1 / ref=4 / deblock=1:0:0 / analyse=0x3:0x133 / me=esa / subme=10 / psy=1 / psy_rd=1.00:0.00 / mixed_ref=1 / me_range=24 / chroma_me=1 / trellis=2 / 8x8dct=1 / cqm=0 / deadzone=21,11 / fast_pskip=1 / chroma_qp_offset=-2 / threads=34 / lookahead_threads=5 / sliced_threads=0 / nr=0 / decimate=1 / interlaced=0 / bluray_compat=0 / constrained_intra=0 / bframes=8 / b_pyramid=2 / b_adapt=2 / b_bias=0 / direct=3 / weightb=1 / open_gop=0 / weightp=2 / keyint=240 / keyint_min=24 / scenecut=40 / intra_refresh=0 / rc_lookahead=60 / rc=crf / mbtree=1 / crf=20.0 / qcomp=0.60 / qpmin=0 / qpmax=69 / qpstep=4 / vbv_maxrate=62500 / vbv_bufsize=78125 / crf_max=0.0 / nal_hrd=none / filler=0 / ip_ratio=1.40 / aq=1:1.00
    Language                                 : English
    Default                                  : Yes
    Forced                                   : No
    Color range                              : Limited
    Color primaries                          : BT.709
    Transfer characteristics                 : BT.709
    Matrix coefficients                      : BT.709
    Statistics Tags Issue                    : mkvmerge v15.0.0 ('Duel with the Devil') 64-bit 2017-12-21 05:04:30 / mkvmerge v15.0.0 ('Duel with the Devil') 64-bit 2017-12-21 05:04:30 / UTC 2017-12-20T13:32:24Z
    FromStats_BitRate                        : 5297357
    FromStats_Duration                       : 01:32:35.509000000
    FromStats_FrameCount                     : 133199
    FromStats_StreamSize                     : 3678689822

    Audio #1
    ID                                       : 2
    Format                                   : AC-3
    Format/Info                              : Audio Coding 3
    Format settings, Endianness              : Big
    Codec ID                                 : A_AC3
    Duration                                 : 1 h 32 min
    Bit rate mode                            : Constant
    Bit rate                                 : 640 kb/s
    Channel(s)                               : 6 channels
    Channel positions                        : Front: L C R, Side: L R, LFE
    Sampling rate                            : 48.0 kHz
    Frame rate                               : 31.250 FPS (1536 SPF)
    Bit depth                                : 16 bits
    Compression mode                         : Lossy
    Stream size                              : 424 MiB (9%)
    Language                                 : Spanish
    Service kind                             : Complete Main
    Default                                  : Yes
    Forced                                   : No
    Statistics Tags Issue                    : mkvmerge v15.0.0 ('Duel with the Devil') 64-bit 2017-12-21 05:04:30 / mkvmerge v15.0.0 ('Duel with the Devil') 64-bit 2017-12-21 05:04:30 / UTC 2017-12-20T13:32:24Z
    FromStats_BitRate                        : 640000
    FromStats_Duration                       : 01:32:35.552000000
    FromStats_FrameCount                     : 173611
    FromStats_StreamSize                     : 444444160

    Audio #2
    ID                                       : 3
    Format                                   : DTS
    Format/Info                              : Digital Theater Systems
    Mode                                     : 16
    Format settings, Endianness              : Big
    Codec ID                                 : A_DTS
    Duration                                 : 1 h 32 min
    Bit rate mode                            : Constant
    Bit rate                                 : 1 509 kb/s
    Channel(s)                               : 6 channels
    Channel positions                        : Front: L C R, Side: L R, LFE
    Sampling rate                            : 48.0 kHz
    Frame rate                               : 93.750 FPS (512 SPF)
    Bit depth                                : 16 bits
    Compression mode                         : Lossy
    Stream size                              : 999 MiB (20%)
    Language                                 : English
    Default                                  : No
    Forced                                   : No
    Statistics Tags Issue                    : mkvmerge v15.0.0 ('Duel with the Devil') 64-bit 2017-12-21 05:04:30 / mkvmerge v15.0.0 ('Duel with the Devil') 64-bit 2017-12-21 05:04:30 / UTC 2017-12-20T13:32:24Z
    FromStats_BitRate                        : 1508999
    FromStats_Duration                       : 01:32:35.542000000
    FromStats_FrameCount                     : 520832
    FromStats_StreamSize                     : 1047913984

    Text #1
    ID                                       : 4
    Format                                   : PGS
    Muxing mode                              : zlib
    Codec ID                                 : S_HDMV/PGS
    Codec ID/Info                            : Picture based subtitle format used on BDs/HD-DVDs
    Language                                 : English
    Default                                  : No
    Forced                                   : No
    Statistics Tags Issue                    : mkvmerge v15.0.0 ('Duel with the Devil') 64-bit 2017-12-21 05:04:30 / mkvmerge v15.0.0 ('Duel with the Devil') 64-bit 2017-12-21 05:04:30 / UTC 2017-12-20T13:32:24Z
    FromStats_BitRate                        : 44422
    FromStats_Duration                       : 01:29:43.795000000
    FromStats_FrameCount                     : 2595
    FromStats_StreamSize                     : 29895277

    Text #2
    ID                                       : 5
    Format                                   : PGS
    Muxing mode                              : zlib
    Codec ID                                 : S_HDMV/PGS
    Codec ID/Info                            : Picture based subtitle format used on BDs/HD-DVDs
    Language                                 : Spanish
    Default                                  : No
    Forced                                   : No
    Statistics Tags Issue                    : mkvmerge v15.0.0 ('Duel with the Devil') 64-bit 2017-12-21 05:04:30 / mkvmerge v15.0.0 ('Duel with the Devil') 64-bit 2017-12-21 05:04:30 / UTC 2017-12-20T13:32:24Z
    FromStats_BitRate                        : 41946
    FromStats_Duration                       : 01:30:02.189000000
    FromStats_FrameCount                     : 2638
    FromStats_StreamSize                     : 28325431

    Menu
    00:00:00.000                             : :Chapter 1
    00:02:47.542                             : :Chapter 2
    00:08:05.193                             : :Chapter 3
    00:16:22.899                             : :Chapter 4
    00:20:46.412                             : :Chapter 5
    00:26:36.887                             : :Chapter 6
    00:30:45.469                             : :Chapter 7
    00:34:58.138                             : :Chapter 8
    00:42:08.860                             : :Chapter 9
    00:48:36.914                             : :Chapter 10
    00:53:13.148                             : :Chapter 11
    00:58:32.134                             : :Chapter 12
    01:04:01.504                             : :Chapter 13
    01:08:30.398                             : :Chapter 14
    01:16:03.392                             : :Chapter 15
    01:23:48.273                             : :Chapter 16

  • Peso: 4.83 GiB

Sinopsis

En Dillford (Ohio) hace tres días todo estaba tranquilo y se mantenía el estatus de siempre: los vampiros estaban en la parte superior del orden social, los zombis eran en la parte inferior, y los seres humanos se quedaban en el medio. Pero este delicado equilibrio se ve destrozado cuando el apocalipsis alienígena llega a Dillford y pone fin a toda la armonía. Ahora es el humano contra vampiros contra zombies, y todos ellos están en contra de los alienígenas. Corresponde a tres adolescentes —un humano, un vampiro y un zombie— que hacen equipo, y deben encontrar la manera de deshacerse de los visitantes interplanetarios, y tratar de restablecer el orden en esta pequeña ciudad “normal”.(FILMAFFINITY)

Ficha técnica

Video trailer de la película

Enlaces de descarga

Rip de Bluray

Descargar Fenómenos de la naturaleza (2015) Full 1080p Latino




Aportes de DPeliculasHDmega la pass es:dpeliculashdmega.org Aportes de CinemaniaHD la pass es:eatsouthward.com

Películas relacionadas

  • Dude (2018) NF 1080p Latino

    2018
    Dude (2018) NF 1080p Latino

    0.0 1h 30m 2018

    Cuatro mejores amigas se tienen que enfrentar a su nueva vida. Las dos últimas semanas de instituto...

    Director: Olivia Milch

    Género: Comedia

    Actores: Sydney Lucas

  • Gun shy (2017) 1080p Latino

    2017
    Gun shy (2017) 1080p Latino

    0.0 1h 31m 2017

    Basada en la novela homónima de Mark Haskell Smith. Turk Henry es una antigua estrella de rock con sobrepeso...

    Director: Simon West

    Género: Acción

    Actores: Sebastián Apiolaza

  • Deep Blue Sea 2 (2018) 1080p Latino

    2018
    Deep Blue Sea 2 (2018) 1080p Latino

    5.0 1h 34m 2018

    La Doctora Misty Calhoun, conservacionista de tiburones, es invitada para asesorar un proyecto secreto...

    Director: Darin Scott

    Género: Acción

    Actores: Rob Mayes

  • Maze Runner prueba de fuego (2015) Full 1080p Latino

    2015
    Maze Runner prueba de fuego (2015) Full 1080p Latino

    5.0 2 h 11 min 2015

    En este nuevo capítulo de la trepidante saga "El Corredor del Laberinto", Thomas (Dylan O'Brien) y el...

    Director: Wes Ball

    Género: Acción

    Actores: Thomas Brodie-Sangster

  • Maze Runner correr o morir (2014) Full 1080p Latino

    2014
    Maze Runner correr o morir (2014) Full 1080p Latino

    5.0 1 h 53 min 2014

    Thomas abre los ojos y se da cuenta que está en un ascensor. Lo extraño es que no recuerda nada, ni...

    Director: Wes Ball

    Género: Acción

    Actores: Will Poulter

Comentarios 0
-->