Escalofrios (2015) Full 1080p Latino

1.170 vistas
1 estrella2 estrellas3 estrellas4 estrellas5 estrellas (2 votos, promedio: 4,00 de 5)
Cargando…

Información de Escalofrios (2015) Full 1080p Latino

Datos de la película

  • Calidad: Full 1080p
  • Audio: Español Latino AC3 5.1 BLURAY - Ingles AC3 5.1 BLURAY
  • Subtitulos: Español Latino PGS - Ingles PGS
  • Resolución: 1920X1080
  • Formato: MKV
  • Codec: H.264
  • Encoder: Dracarys
  • Mediainfo: Clic para Mostrar Datos Ver
  • Format                                   : Matroska
    Format version                           : Version 4 / Version 2
    File size                                : 3.52 GiB
    Duration                                 : 1 h 43 min
    Overall bit rate                         : 4 875 kb/s
    Movie name                               : CinemaniaHDD.com
    Encoded date                             : UTC 2017-12-09 08:33:36 / UTC 2017-12-09T05:54:27Z
    Writing application                      : mkvmerge v15.0.0 ('Duel with the Devil') 64-bit
    Writing library                          : libebml v1.3.5 + libmatroska v1.4.5 / Lavf57.7.2

    Video
    ID                                       : 1
    Format                                   : AVC
    Format/Info                              : Advanced Video Codec
    Format profile                           : [email protected]
    Format settings                          : CABAC / 4 Ref Frames
    Format settings, CABAC                   : Yes
    Format settings, RefFrames               : 4 frames
    Codec ID                                 : V_MPEG4/ISO/AVC
    Duration                                 : 1 h 43 min
    Bit rate                                 : 3 498 kb/s
    Width                                    : 1 920 pixels
    Height                                   : 1 080 pixels
    Display aspect ratio                     : 16:9
    Frame rate mode                          : Constant
    Frame rate                               : 23.976 (24000/1001) FPS
    Color space                              : YUV
    Chroma subsampling                       : 4:2:0
    Bit depth                                : 8 bits
    Scan type                                : Progressive
    Bits/(Pixel*Frame)                       : 0.070
    Stream size                              : 2.52 GiB (72%)
    Title                                    : Escalofrios (2015) Full 1080p Latino
    Writing library                          : x264 core 148 r2708 86b7198
    Encoding settings                        : cabac=1 / ref=4 / deblock=1:0:0 / analyse=0x3:0x133 / me=esa / subme=10 / psy=1 / psy_rd=1.00:0.00 / mixed_ref=1 / me_range=24 / chroma_me=1 / trellis=2 / 8x8dct=1 / cqm=0 / deadzone=21,11 / fast_pskip=1 / chroma_qp_offset=-2 / threads=34 / lookahead_threads=5 / sliced_threads=0 / nr=0 / decimate=1 / interlaced=0 / bluray_compat=0 / constrained_intra=0 / bframes=8 / b_pyramid=2 / b_adapt=2 / b_bias=0 / direct=3 / weightb=1 / open_gop=0 / weightp=2 / keyint=240 / keyint_min=24 / scenecut=40 / intra_refresh=0 / rc_lookahead=60 / rc=crf / mbtree=1 / crf=20.0 / qcomp=0.60 / qpmin=0 / qpmax=69 / qpstep=4 / vbv_maxrate=62500 / vbv_bufsize=78125 / crf_max=0.0 / nal_hrd=none / filler=0 / ip_ratio=1.40 / aq=1:1.00
    Language                                 : English
    Default                                  : Yes
    Forced                                   : No
    Color range                              : Limited
    Color primaries                          : BT.709
    Transfer characteristics                 : BT.709
    Matrix coefficients                      : BT.709
    Statistics Tags Issue                    : mkvmerge v15.0.0 ('Duel with the Devil') 64-bit 2017-12-09 08:33:36 / mkvmerge v15.0.0 ('Duel with the Devil') 64-bit 2017-12-09 08:33:36 / UTC 2017-12-09T05:54:27Z
    FromStats_BitRate                        : 3564518
    FromStats_Duration                       : 01:43:16.149000000
    FromStats_FrameCount                     : 148559
    FromStats_StreamSize                     : 2760785828

    Audio #1
    ID                                       : 2
    Format                                   : AC-3
    Format/Info                              : Audio Coding 3
    Format settings, Endianness              : Big
    Codec ID                                 : A_AC3
    Duration                                 : 1 h 43 min
    Bit rate mode                            : Constant
    Bit rate                                 : 640 kb/s
    Channel(s)                               : 6 channels
    Channel positions                        : Front: L C R, Side: L R, LFE
    Sampling rate                            : 48.0 kHz
    Frame rate                               : 31.250 FPS (1536 SPF)
    Bit depth                                : 16 bits
    Compression mode                         : Lossy
    Stream size                              : 473 MiB (13%)
    Title                                    : AC3-Bluray
    Language                                 : Spanish
    Service kind                             : Complete Main
    Default                                  : Yes
    Forced                                   : No
    Statistics Tags Issue                    : mkvmerge v15.0.0 ('Duel with the Devil') 64-bit 2017-12-09 08:33:36 / mkvmerge v15.0.0 ('Duel with the Devil') 64-bit 2017-12-09 08:33:36 / UTC 2017-12-09T05:54:27Z
    FromStats_BitRate                        : 640000
    FromStats_Duration                       : 01:43:16.192000000
    FromStats_FrameCount                     : 193631
    FromStats_StreamSize                     : 495695360

    Audio #2
    ID                                       : 3
    Format                                   : AC-3
    Format/Info                              : Audio Coding 3
    Format settings, Endianness              : Big
    Codec ID                                 : A_AC3
    Duration                                 : 1 h 43 min
    Bit rate mode                            : Constant
    Bit rate                                 : 640 kb/s
    Channel(s)                               : 6 channels
    Channel positions                        : Front: L C R, Side: L R, LFE
    Sampling rate                            : 48.0 kHz
    Frame rate                               : 31.250 FPS (1536 SPF)
    Bit depth                                : 16 bits
    Compression mode                         : Lossy
    Stream size                              : 473 MiB (13%)
    Title                                    : AC3-Bluray
    Language                                 : English
    Service kind                             : Complete Main
    Default                                  : No
    Forced                                   : No
    Statistics Tags Issue                    : mkvmerge v15.0.0 ('Duel with the Devil') 64-bit 2017-12-09 08:33:36 / mkvmerge v15.0.0 ('Duel with the Devil') 64-bit 2017-12-09 08:33:36 / UTC 2017-12-09T05:54:27Z
    FromStats_BitRate                        : 640000
    FromStats_Duration                       : 01:43:16.192000000
    FromStats_FrameCount                     : 193631
    FromStats_StreamSize                     : 495695360

    Text #1
    ID                                       : 4
    Format                                   : PGS
    Muxing mode                              : zlib
    Codec ID                                 : S_HDMV/PGS
    Codec ID/Info                            : Picture based subtitle format used on BDs/HD-DVDs
    Language                                 : English
    Default                                  : No
    Forced                                   : No
    Statistics Tags Issue                    : mkvmerge v15.0.0 ('Duel with the Devil') 64-bit 2017-12-09 08:33:36 / mkvmerge v15.0.0 ('Duel with the Devil') 64-bit 2017-12-09 08:33:36 / UTC 2017-12-09T05:54:27Z
    FromStats_BitRate                        : 37008
    FromStats_Duration                       : 01:42:03.492000000
    FromStats_FrameCount                     : 3038
    FromStats_StreamSize                     : 28327908

    Text #2
    ID                                       : 5
    Format                                   : PGS
    Muxing mode                              : zlib
    Codec ID                                 : S_HDMV/PGS
    Codec ID/Info                            : Picture based subtitle format used on BDs/HD-DVDs
    Language                                 : Spanish
    Default                                  : No
    Forced                                   : No
    Statistics Tags Issue                    : mkvmerge v15.0.0 ('Duel with the Devil') 64-bit 2017-12-09 08:33:36 / mkvmerge v15.0.0 ('Duel with the Devil') 64-bit 2017-12-09 08:33:36 / UTC 2017-12-09T05:54:27Z
    FromStats_BitRate                        : 27784
    FromStats_Duration                       : 01:41:27.873000000
    FromStats_FrameCount                     : 2722
    FromStats_StreamSize                     : 21143914

    Menu
    00:00:00.000                             : :Chapter 1
    00:08:09.698                             : :Chapter 2
    00:11:45.955                             : :Chapter 3
    00:17:54.031                             : :Chapter 4
    00:21:52.853                             : :Chapter 5
    00:27:57.843                             : :Chapter 6
    00:32:40.292                             : :Chapter 7
    00:38:29.849                             : :Chapter 8
    00:44:37.008                             : :Chapter 9
    00:52:01.452                             : :Chapter 10
    00:58:12.948                             : :Chapter 11
    01:03:40.608                             : :Chapter 12
    01:09:56.317                             : :Chapter 13
    01:16:40.763                             : :Chapter 14
    01:22:55.220                             : :Chapter 15
    01:31:12.467                             : :Chapter 16

  • Peso: 3.52 GiB

Sinopsis

El adolescente Zach Cooper se muda sin muchas ganas con su familia desde Nueva York al pequeño pueblo de Greendale. Allí encuentra un resquicio de ilusión cuando conoce a su vecina, la guapa Hannah, y hace un amigo: Champ. También se entera de que el padre de Hannah es RL Stine, autor del Bestseller de la serie “Pesadillas”. Pero Zach descubre que Stine tiene un secreto: las criaturas de sus historias son reales, y las mantiene encerradas en sus libros. Así que cuando en un descuido todos los demonios de Stine son liberados involuntariamente de sus libros, Zach, Hannah, Champ y el propio Stine, en una alocada noche llena de aventuras, tendrán que formar equipo y atrapar a todas las criaturas de la imaginación de Stine para devolverlos a los libros donde pertenecen, con el fin de salvar la ciudad.

Ficha técnica

Video trailer de la película

Enlaces de descarga

Rip de Bluray

Descargar Escalofrios (2015) Full 1080p Latino




Aportes de DPeliculasHDmega la pass es:dpeliculashdmega.org Aportes de CinemaniaHD la pass es:eatsouthward.com

Películas relacionadas

  • Niños del hombre (2006) Full 1080p Latino

    2006
    Niños del hombre (2006) Full 1080p Latino

    0.0 1 h 49 min 2006

    Año 2027: el ser humano está al borde de la extinción: los hombres han perdido la capacidad de procrear...

    Director: Terry Needham

    Género: Acción

    Actores: Yolanda Vazquez

  • Para atrapar al ladrón (1955) Full 1080p Latino

    1955
    Para atrapar al ladrón (1955) Full 1080p Latino

    0.0 1h 46m 1955

    A pesar de que John Robie "El Gato" (Cary Grant) es un ladrón de joyas reformado, se convierte en el...

    Director: Alfred Hitchcock

    Género: Crimen

    Actores: William 'Wee Willie' Davis

  • Si decido quedarme (2014) Full 1080p Latino

    2014
    Si decido quedarme (2014) Full 1080p Latino

    5.0 1 h 46 min 2014

    Mia es una joven de 17 años que parece tenerlo todo en la vida: una famila adorable, un novio que la...

    Director: R.J. Cutler

    Género: Drama

    Actores: William C. Vaughan

  • Dude (2018) NF 1080p Latino

    2018
    Dude (2018) NF 1080p Latino

    5.0 1h 30m 2018

    Cuatro mejores amigas se tienen que enfrentar a su nueva vida. Las dos últimas semanas de instituto...

    Director: Olivia Milch

    Género: Comedia

    Actores: Sydney Lucas

Comentarios 3
  • slash - 17 diciembre, 2017

    Muchas gracias.

  • Me quejo - 09 diciembre, 2017

    Disculpen que insista con esto, pero las peliculas “pesadas” son más ligeras que una versión web-dl. Y eso se nota, sobre todo, en la imagen. En una película no deberían verse escenas pixeladas. Esta es una buena película y vale la pena descargar más volumen de archivo, si el resultado es óptimo. Las tv HD requieren más calidad de imagen, no solo audio dts.

    • Dpelis2 - 09 diciembre, 2017

      muchas veces las plateadas tiene menos peso por que se usa una configuracion distinta, que lo que hace es comprimir mas la imagen haciendo que tenga la misma calidad de un BD pero con un peso mucho menor. no se si sabes pero las peliculas no por tener mas peso se ven mejor todo depende de la configuracion. y si la película se pixelea dime en que minuto y lo reviso, Saludos

-->